img image001 image001 image001 image001 image001 image001 image001 image001 image001 image001 image001 image001 image001 image001 image001 image001

Planets Sun Sun Sun
Статистика раздачи
Автор: Nickolas3434 | Размер: 13.81 ГБ | Добавлен: 17 сен 2014
Раздают: 99    Качают: 29
Скачать торрент
Скачать торрент
Описание торрента

СообщениеДобавлено: 17 сен 2014 


Название: Война миров
Оригинальное название: War of the Worlds
Год выпуска: 2005
Страна: США
Жанр: фантастика, триллер, приключения
Продолжительность: 01:56:33
Перевод: Дубляж+Двухголосный, закадровый Tycoon
Субтитры:Русские (Полные), английские (полные)
Вид субтитров Вшитые, отключаемые


Режиссер: Стивен Спилберг / Steven Spielberg

В ролях: Том Круз (Ray Ferrier), Дакота Фаннинг (Rachel Ferrier), Миранда Отто (Mary Ann), Джастин Чэтвин (Robbie), Тим Роббинс (Harlan Ogilvy), Рик Гонсалес (Vincent), Юл Васкес (Julio), Ленни Венито (Manny the Mechanic), Лиза Энн Уолтер (Bartender), Энн Робинсон (Grandmother), Джин Бэрри (Grandfather), Дэвид Алан Баш (Tim)


Описание:
Никто не поверил бы в начале 21 столетия, что за всем происходящим на Земле зорко и внимательно следят существа более развитые, чем человек; что в то время, как люди занимались своими делами, их исследовали и изучали.
С бесконечным самодовольством сновали люди по всему земному шару, занятые своими делишками, уверенные в своей власти над материей. А между тем через бездну пространства на Землю смотрели глазами полными зависти, существа с высокоразвитым, холодным, бесчувственным интеллектом, и медленно, но верно вырабатывали свои враждебные нам планы...


Рейтинг

imdb.com: 6.50 (261 654)
MPAA: PG-13 - Детям до 13 лет просмотр не желателен


Автор рипа:Tiberiumsun69



Качество: BDRip 1080p / 60 FPS
Формат: MKV
Видео кодек: AVC
Аудио кодек:AC3, DTS
Видео: AVC, 1920x1040, 13950 kbps, 59,940 fps
Аудио №1: русский / AC3 / 5.1 / 48 kHz / 640 kbps / 16 bit |Дубляж|
Аудио №2: русский / AC3 / 5.1 / 48 kHz / 640 kbps / 16 bit |Двухголосный, закадровый Tycoon|
Аудио №3: английский / AC3 / 5.1 / 48 kHz / 640 kbps / 16 bit
Аудио №4: русский / DTS / 5.1 / 48 kHz / 755 kbps / 24 bit |Дубляж|
Главы Есть




Перед скачиванием обязательно проверьте сэмпл на своем оборудовании.

Raven за помощ при создании релиза и обложки

General
Unique ID : 178572047788029953513843244961992380147 (0x8657B9B43E6725C99515764E90358EF3)
Complete name : A:1080p 60fpsВойна миров 1080p 60fps.mkv
Format : Matroska
Format version : Version 4 / Version 2
File size : 13.8 GiB
Duration : 1h 56mn
Overall bit rate : 17.0 Mbps
Encoded date : UTC 2014-09-13 03:38:14
Writing application : mkvmerge v6.9.1 ('Blue Panther') 64bit built on Apr 18 2014 18:23:38
Writing library : libebml v1.3.0 + libmatroska v1.4.1

Video
ID : 1
Format : AVC
Format/Info : Advanced Video Codec
Format profile : High@L4.1
Format settings, CABAC : Yes
Format settings, ReFrames : 4 frames
Codec ID : V_MPEG4/ISO/AVC
Duration : 1h 56mn
Bit rate : 14.0 Mbps
Width : 1 920 pixels
Height : 1 040 pixels
Display aspect ratio : 16:9
Frame rate : 59.940 fps
Color space : YUV
Chroma subsampling : 4:2:0
Bit depth : 8 bits
Scan type : Progressive
Bits/(Pixel*Frame) : 0.117
Stream size : 11.4 GiB (82%)
Writing library : x264 core 133 r2334 a3ac64b
Encoding settings : cabac=1 / ref=4 / deblock=1:-1:-1 / analyse=0x3:0 / me=umh / subme=9 / psy=1 / psy_rd=1.00:0.10 / mixed_ref=1 / me_range=42 / chroma_me=0 / trellis=2 / 8x8dct=1 / cqm=0 / deadzone=21,11 / fast_pskip=0 / chroma_qp_offset=-3 / threads=12 / lookahead_threads=1 / sliced_threads=0 / nr=0 / decimate=0 / interlaced=0 / bluray_compat=0 / constrained_intra=0 / bframes=5 / b_pyramid=2 / b_adapt=2 / b_bias=0 / direct=1 / weightb=1 / open_gop=0 / weightp=2 / keyint=599 / keyint_min=59 / scenecut=40 / intra_refresh=0 / rc=crf / mbtree=0 / crf=19.0 / qcomp=0.60 / qpmin=0 / qpmax=69 / qpstep=4 / ip_ratio=1.40 / pb_ratio=1.30 / aq=0
Language : English
Default : Yes
Forced : No

Audio #1
ID : 2
Format : AC-3
Format/Info : Audio Coding 3
Mode extension : CM (complete main)
Codec ID : A_AC3
Duration : 1h 56mn
Bit rate mode : Constant
Bit rate : 640 Kbps
Channel(s) : 6 channels
Channel positions : Front: L C R, Side: L R, LFE
Sampling rate : 48.0 KHz
Bit depth : 16 bits
Compression mode : Lossy
Stream size : 534 MiB (4%)
Title : Дубляж
Language : Russian
Default : Yes
Forced : No

Audio #2
ID : 3
Format : AC-3
Format/Info : Audio Coding 3
Mode extension : CM (complete main)
Codec ID : A_AC3
Duration : 1h 56mn
Bit rate mode : Constant
Bit rate : 640 Kbps
Channel(s) : 6 channels
Channel positions : Front: L C R, Side: L R, LFE
Sampling rate : 48.0 KHz
Bit depth : 16 bits
Compression mode : Lossy
Stream size : 534 MiB (4%)
Title : Двухголосный, закадровый Tycoon
Language : Russian
Default : No
Forced : No

Audio #3
ID : 4
Format : AC-3
Format/Info : Audio Coding 3
Mode extension : CM (complete main)
Codec ID : A_AC3
Duration : 1h 56mn
Bit rate mode : Constant
Bit rate : 640 Kbps
Channel(s) : 6 channels
Channel positions : Front: L C R, Side: L R, LFE
Sampling rate : 48.0 KHz
Bit depth : 16 bits
Compression mode : Lossy
Stream size : 534 MiB (4%)
Title : Оригинал
Language : English
Default : No
Forced : No

Audio #4
ID : 5
Format : DTS
Format/Info : Digital Theater Systems
Codec ID : A_DTS
Duration : 1h 56mn
Bit rate mode : Constant
Bit rate : 755 Kbps
Channel(s) : 6 channels
Channel positions : Front: L C R, Side: L R, LFE
Sampling rate : 48.0 KHz
Bit depth : 24 bits
Compression mode : Lossy
Stream size : 629 MiB (4%)
Title : Дубляж
Language : Russian
Default : No
Forced : No

Text #1
ID : 6
Format : UTF-8
Codec ID : S_TEXT/UTF8
Codec ID/Info : UTF-8 Plain Text
Title : Полные
Language : Russian
Default : No
Forced : No

Text #2
ID : 7
Format : UTF-8
Codec ID : S_TEXT/UTF8
Codec ID/Info : UTF-8 Plain Text
Title : Полные
Language : English
Default : No
Forced : No

Menu
00:00:00.000 : en:Earth Under Man
00:04:16.005 : en:Eve of the War
00:08:18.247 : en:Coming of the Invaders
00:13:17.378 : en:In the Storm
00:19:19.867 : en:The Machine Emerges
00:25:29.319 : en:Heat-Ray
00:29:45.241 : en:Escape
00:34:32.570 : en:How We Reached Home
00:38:47.033 : en:At the Window
00:43:53.255 : en:Human Toll
00:49:03.732 : en:Worst of Man
00:55:17.105 : en:Exodus
00:59:21.015 : en:Hudson Ferry
01:04:44.171 : en:The Fighting Begins
01:10:37.232 : en:Harlan Ogilvy
01:15:53.298 : en:Disturbing Revelations
01:20:28.990 : en:Stillness
01:24:47.999 : en:Days of Imprisonment
01:29:03.963 : en:Alone with Harlan
01:33:59.884 : en:Under Foot
01:36:59.604 : en:Earth Under Them
01:41:07.561 : en:In Boston
01:45:27.404 : en:Wreckage
01:49:42.367 : en:End Credits



Просьба к переливающим на другие сайты, в оформлении указывайте пожалуйста авторство рипа - Tiberiumsun69



   Похожие торренты   Торрент   Размер 
В этой теме нет новых непрочитанных сообщений. Война миров / War of the Worlds (2005) BDRemux 1080p | D, P, A

17 | 5

36.68 ГБ

В этой теме нет новых непрочитанных сообщений. Война миров / War of the Worlds (2005) BDRip от HQ-ViDEO

280 | 17

2.18 ГБ

В этой теме нет новых непрочитанных сообщений. Война миров / War of the Worlds (2005) BDRip 720p | D, P2, P, A

106 | 13

5.97 ГБ

В этой теме нет новых непрочитанных сообщений. Война миров / War of the Worlds (2005) BDRip 720p от Leonardo | D

335 | 44

4.61 ГБ

В этой теме нет новых непрочитанных сообщений. Война миров / War of the Worlds (2005) HDRip-AVC | D

131 | 12

743.78 МБ

В этой теме нет новых непрочитанных сообщений. Война миров: Голиаф / War of the Worlds: Goliath (2012) BDRip 1080p от Ash61 | 3D-Video | halfOU | L1

86 | 7

4.13 ГБ

В этой теме нет новых непрочитанных сообщений. Война миров: Голиаф / War of the Worlds: Goliath (2012) BDRip 720 | L2

57 | 34

2.52 ГБ




Вы не можете начинать темы
Вы не можете отвечать на сообщения
Вы не можете редактировать свои сообщения
Вы не можете удалять свои сообщения
Вы не можете добавлять вложения

Перейти:  
 Вход
ppkBB3cker v.2 © 2008-2014 @ PPK
[ Time : 0.023s | 18 Queries | GZIP : Off ]

cron