img image001 image001 image001 image001 image001 image001 image001 image001 image001 image001 image001 image001 image001 image001 image001 image001

Planets Sun Sun Sun
Статистика раздачи
Автор: Nickolas3434 | Размер: 744.65 МБ | Добавлен: 17 сен 2014
Раздают: 132    Качают: 34
Скачать торрент
Скачать торрент
Описание торрента

СообщениеДобавлено: 17 сен 2014 

Страна: США, Германия
Производство: Cruise/Wagner Productions, Munich Film Partners & Company (MFP) MI2 Productions, Paramount Pictures

Жанр: боевик, триллер, приключения
Год выпуска: 2000
Продолжительность: 02:03:35

Перевод: Профессиональный (полное дублирование)
Оригинальная аудиодорожка: нет
Cубтитры: нет

Режиссер: Джон Ву / John Woo

В ролях:
Том Круз, Дюгрэй Скотт, Тэнди Ньютон, Ричард Роксбург, Винг Реймз, Джон Полсон, Брендан Глисон, Раде Шербеджия, Уильям Мапотер, Энтони Хопкинс...

Роли дублировали:
Владимир Конкин, Андрей Градов, Елена Соловьева, Владимир Антоник, Георгий Мартиросьян...

Описание:
Если мир внезапно оказывается перед лицом ужасной катастрофы, есть лишь один человек, который может исправить это ужасное положение. Его имя Итан Хант, он прирожденный специалист по разрешению самых неразрешимых ситуаций. Теперь у Итана — новый, строгий начальник, новая очаровательная возлюбленная, новый коварный противник и новое задание, которое простому смертному просто не по плечу. Но Итан Хант не был бы Итаном Хантом, если бы не смог с блеском выполнить очередную невыполнимую миссию: справиться с кровожадными террористами и спасти планету от ужасного, смертельного вируса!






Исходник: BDRemux 1080p
Тип релиза: BDRip
Контейнер: AVI

Видео: 688x288 (2,40:1), 23,976 fps, XviD ~ 708 kbps avg, 0.149 bit/pixel
Аудио: 48 kHz, MP3 2.0, 128 kbps

Раздача от:
Общее
Полное имя : Missiya.nevypolnima.2.2000.BDRip-745_[New-team]_by_AVP_Studio.avi
Формат : AVI
Формат/Информация : Audio Video Interleave
Размер файла : 745 Мбайт
Продолжительность : 2 ч. 3 м.
Общий поток : 845 Кбит/сек
Программа кодирования : VirtualDubModRus 1.5.10.2 (build 2542/release)
Библиотека кодирования : VirtualDubMod build 2542/release

Видео
Идентификатор : 0
Формат : MPEG-4 Visual
Профиль формата : Advanced Simple@L5
Параметр BVOP формата : 1
Параметр QPel формата : Нет
Параметр GMC формата : Без точки перехода
Параметр матрицы формата : Выборочная
Идентификатор кодека : XVID
Идентификатор кодека/Подсказка : XviD
Продолжительность : 2 ч. 3 м.
Битрейт : 708 Кбит/сек
Ширина : 688 пикселей
Высота : 288 пикселей
Соотношение сторон : 2,40:1
Частота кадров : 23,976 кадра/сек
Цветовое пространство : YUV
Субдискретизация насыщенности : 4:2:0
Битовая глубина : 8 бит
Тип развёртки : Прогрессивная
Метод сжатия : С потерями
Бит/(Пиксели*Кадры) : 0.149
Размер потока : 624 Мбайт (84%)
Библиотека кодирования : XviD 73

Аудио
Идентификатор : 1
Формат : MPEG Audio
Версия формата : Version 1
Профиль формата : Layer 3
Идентификатор кодека : 55
Идентификатор кодека/Подсказка : MP3
Продолжительность : 2 ч. 3 м.
Вид битрейта : Постоянный
Битрейт : 128 Кбит/сек
Каналы : 2 канала
Частота : 48,0 КГц
Метод сжатия : С потерями
Размер потока : 113 Мбайт (15%)
Выравнивание : Соединение по промежуткам
Продолжительность промежутка : 42 мс. (1,00 видеокадр)
Время предзагрузки промежутка : 504 мс.
Библиотека кодирования : LAME3.99r
Настройки программы : -m s -V 4 -q 2 -lowpass 17 -b 128





   Похожие торренты   Торрент   Размер 
В этой теме нет новых непрочитанных сообщений. Миссия: невыполнима 2 / Mission: Impossible II (2000) BDRip-AVC от New-Team | D, P

170 | 31

2.18 ГБ

В этой теме нет новых непрочитанных сообщений. Миссия: невыполнима 2 / Mission: Impossible II (2000) BDRip от New-Team | D, P

59 | 8

2.18 ГБ

В этой теме нет новых непрочитанных сообщений. Миссия: невыполнима 2 / Mission: Impossible II (2000) BDRip 720p от New-Team | D, P

102 | 28

4.37 ГБ

В этой теме нет новых непрочитанных сообщений. Миссия: невыполнима 2 / Mission: Impossible II (2000) BDRip от HQ-ViDEO

798 | 86

2.18 ГБ

В этой теме нет новых непрочитанных сообщений. Миссия: невыполнима 2 / Mission: Impossible II (2000) BDRip 720p от Leonardo and Scarabey | P

53 | 11

6.85 ГБ

В этой теме нет новых непрочитанных сообщений. Миссия невыполнима 2 / Mission:Impossible 2 (2000) HDRip | Гаврилов

181 | 32

1.46 ГБ

В этой теме нет новых непрочитанных сообщений. Миссия невыполнима: Племя изгоев / Mission: Impossible - Rogue Nation (2015) BDRip-AVC от New-Team | iTunes

3230 | 1506

2.11 ГБ




Вы не можете начинать темы
Вы не можете отвечать на сообщения
Вы не можете редактировать свои сообщения
Вы не можете удалять свои сообщения
Вы не можете добавлять вложения

Перейти:  
 Вход
ppkBB3cker v.2 © 2008-2014 @ PPK
[ Time : 0.033s | 18 Queries | GZIP : Off ]

cron