img image001 image001 image001 image001 image001 image001 image001 image001 image001 image001 image001 image001 image001 image001 image001 image001

Planets Sun Sun Sun
Статистика раздачи
Автор: Nickolas3434 | Размер: 2.19 ГБ | Добавлен: 17 сен 2014
Раздают: 226    Качают: 39
Скачать торрент
Скачать торрент
Описание торрента

СообщениеДобавлено: 17 сен 2014 

Информация о фильме
Название: Злостный видеоигровой задрот: Кино
Оригинальное название: Angry Video Game Nerd: The Movie
Год выхода: 2014
Жанр: Фантастика, комедия, приключения
Режиссер: Джеймс Рольф
В ролях: Давид Дастмалчян, Робби Рист, Ллойд Кауфман, Логан Гроув, Джереми Суарес, Беар МакКрири, Даг Уокер, Джеймс Рольф, Уитни Мур, Эдди Пепитон

О фильме:
Главная тема фильма — сомнительное захоронение свыше одного миллиона копий так называемой «самой ужасной игры за всё время», E.T. (игра по фильму Стивена Спилберга «Инопланетянин» для системы Atari 2600). По просьбе своих фанатов, ответ на эту загадку пытается найти Задрот, решив доказать, что там ничего не лежит. Федеральные организации в свою очередь считают, что он исследует Зону 51 и место падения НЛО…


Страна: США
Студия: CineMassacre Productions, The, Evil Empire Entertainment
Продолжительность: 01:54:50
Перевод: Любительское (многоголосое) - Вендетта, Любительский одноголосый – Зебуро

Файл
Кодек: h.264 (MKV)
Качество: WEBRip-AVC
Видео: MPEG-4 AVC, ~2096 Кбит/с, 1024 x 424
Звук: Русский, английский: AC3, 2 ch, 192 Кбит/с
Субтитры: нет

Семпл

Общее
Уникальный идентификатор : 220949929516326658473302753342779520938 (0xA6396896821F60089A77CF590FF377AA)
Полное имя : D: Angry Video Game Nerd The Movie (2014) WEBRip-AVC.mkv
Формат : Matroska
Версия формата : Version 4 / Version 2
Размер файла : 2,19 Гбайт
Продолжительность : 1 ч. 54 м.
Общий поток : 2726 Кбит/сек
Дата кодирования : UTC 2014-09-15 13:06:09
Программа кодирования : mkvmerge v7.1.0 ('Good Love') 64bit built on Jul 27 2014 13:06:55
Библиотека кодирования : libebml v1.3.0 + libmatroska v1.4.1
DURATION : 01:54:50.176000000
NUMBER_OF_FRAMES : 215318
NUMBER_OF_BYTES : 165364224
_STATISTICS_WRITING_APP : mkvmerge v7.1.0 ('Good Love') 64bit built on Jul 27 2014 13:06:55
_STATISTICS_WRITING_DATE_UTC : 2014-09-15 13:06:09
_STATISTICS_TAGS : BPS DURATION NUMBER_OF_FRAMES NUMBER_OF_BYTES

Видео
Идентификатор : 1
Формат : AVC
Формат/Информация : Advanced Video Codec
Профиль формата : Main@L4.1
Параметр CABAC формата : Да
Параметр ReFrames формата : 4 кадра
Идентификатор кодека : V_MPEG4/ISO/AVC
Продолжительность : 1 ч. 54 м.
Битрейт : 2096 Кбит/сек
Ширина : 1024 пикселя
Высота : 424 пикселя
Соотношение сторон : 2,40:1
Режим частоты кадров : Постоянный
Частота кадров : 23,976 кадра/сек
Цветовое пространство : YUV
Субдискретизация насыщенности : 4:2:0
Битовая глубина : 8 бит
Тип развёртки : Прогрессивная
Бит/(Пиксели*Кадры) : 0.201
Размер потока : 1,68 Гбайт (77%)
Язык : English
Default : Да
Forced : Нет

Аудио #1
Идентификатор : 2
Формат : AC-3
Формат/Информация : Audio Coding 3
Расширение режима : CM (complete main)
Параметр Endianness формата : Big
Идентификатор кодека : A_AC3
Продолжительность : 1 ч. 54 м.
Вид битрейта : Постоянный
Битрейт : 192 Кбит/сек
Каналы : 2 канала
Расположение каналов : Front: L R
Частота : 48,0 КГц
Битовая глубина : 16 бит
Метод сжатия : С потерями
Размер потока : 158 Мбайт (7%)
Заголовок : Вендетта
Язык : Russian
Default : Да
Forced : Нет

Аудио #2
Идентификатор : 3
Формат : AC-3
Формат/Информация : Audio Coding 3
Расширение режима : CM (complete main)
Параметр Endianness формата : Big
Идентификатор кодека : A_AC3
Продолжительность : 1 ч. 54 м.
Вид битрейта : Постоянный
Битрейт : 192 Кбит/сек
Каналы : 2 канала
Расположение каналов : Front: L R
Частота : 48,0 КГц
Битовая глубина : 16 бит
Метод сжатия : С потерями
Размер потока : 158 Мбайт (7%)
Заголовок : Зебуро
Язык : Russian
Default : Нет
Forced : Нет

Аудио #3
Идентификатор : 4
Формат : AC-3
Формат/Информация : Audio Coding 3
Расширение режима : CM (complete main)
Параметр Endianness формата : Big
Идентификатор кодека : A_AC3
Продолжительность : 1 ч. 54 м.
Вид битрейта : Постоянный
Битрейт : 192 Кбит/сек
Каналы : 2 канала
Расположение каналов : Front: L R
Частота : 48,0 КГц
Битовая глубина : 16 бит
Метод сжатия : С потерями
Размер потока : 158 Мбайт (7%)
Заголовок : Английский
Язык : English
Default : Нет
Forced : Нет




   Похожие торренты   Торрент   Размер 
В этой теме нет новых непрочитанных сообщений. Злостный видеоигровой задрот: Кино / Angry Video Game Nerd: The Movie (2014) WEBRip | L1

1244 | 57

1.37 ГБ

В этой теме нет новых непрочитанных сообщений. Злостный видеоигровой задрот: Кино / Angry Video Game Nerd: The Movie (2014) WEBRip | L

732 | 26

1.46 ГБ

В этой теме нет новых непрочитанных сообщений. Злостный видеоигровой задрот: Кино / Angry Video Game Nerd: The Movie (2014) WEBRip 720p | L1

464 | 25

1.93 ГБ

В этой теме нет новых непрочитанных сообщений. Злостный Видеоигровой Задрот / The Angry Video Game Nerd (2006 - 2010) WebRip

11 | 15

5.15 ГБ

В этой теме нет новых непрочитанных сообщений. Злобный Видеоигровой Задрот / Angry Video Game Nerd: The Movie (2014) BDRemux 1080p | L

15 | 3

11.98 ГБ

В этой теме нет новых непрочитанных сообщений. Angry Birds в кино / The Angry Birds Movie (2016) BDRip 1080p от Ash61 | 3D-Video | halfOU | iTunes

107 | 47

11.17 ГБ

В этой теме нет новых непрочитанных сообщений. Angry Birds в кино / The Angry Birds Movie (2016) BDRip 1080p от Ash61 | 3D-Video | halfOU | iTunes

0 | 0

11.64 ГБ




Вы не можете начинать темы
Вы не можете отвечать на сообщения
Вы не можете редактировать свои сообщения
Вы не можете удалять свои сообщения
Вы не можете добавлять вложения

Перейти:  
 Вход
ppkBB3cker v.2 © 2008-2014 @ PPK
[ Time : 0.042s | 18 Queries | GZIP : Off ]

cron