img image001 image001 image001 image001 image001 image001 image001 image001 image001 image001 image001 image001 image001 image001 image001 image001

Planets Sun Sun Sun
Статистика раздачи
Автор: Снежана | Размер: 4.37 ГБ | Добавлен: 21 июл 2013
Раздают: 2    Качают: 2
Скачать торрент
Скачать торрент
Описание торрента

СообщениеДобавлено: 21 июл 2013 

#77

Год выпуска: 2000
Жанр: Драма
Продолжительность: 02:05:55
Перевод: Профессиональный (Полное дублирование + Многоголосый, закадровый)
Русские субтитры: есть
Режиссер: Стивен Содерберг / Steven Soderbergh
В ролях: Джулия Робертс, Дэвид Брисбин, Доун Дидавик, Альберт Финни, Валенте Родригез, Кончата Феррелл, Джордж Роки Салливан, Пэт Скиппер, Джек Гилл, Ирен Ольга Лопез, Эмили Маркс, Джули Маркс, Скотти Левенуорф и другие...
Описание: Фильм поставлен по реальной истории.
Это история об Эрин Брокович, одинокой женщине с тремя детьми, которую жизнь не часто баловала светлыми днями. Для таких, как она, нет карьерных перспектив, есть только скромная работа в маленькой юридической фирме. Но для уверенной в себе красотки, не стесняющейся в выражениях, достаточно одного ничтожного шанса, чтобы кардинально изменить свою судьбу. Красота и обаяние помогли ей добиться невиданного успеха, но теперь Эрин потребуется невероятная решительность, чтобы довести дело века до суда.
Одна из лучших ролей Джулии Робертс, получившей за нее премию "Оскар" как лучшая актриса. Фильм также был номинирован на "Оскар" за лучший фильм (продюсеры Дэнни ДеВито, Майкл Шэмберг, Стэйси Шер), лучшую режиссуру (Стивен Содерберг), лучшую мужскую роль второго плана (Альберт Финни) и лучший оригинальный сценарий (Сюзанна Грэнт).
Исходник DVD9 - оставленно анимированное меню; кнопки допов и отсутствующих языков деактивированы; удаленны: допы, итальянская и испанская дороги.
Сжатие и редактирование происходило с помощью: DVDRemake Pro, DVD Rebuilder + CCE/Procoder. Сжатие 9%. Автор рипа Ibraghim


Файл:
Видео
Идентификатор : 224 (0xE0)
Формат : MPEG Video
Версия формата : Version 2
Профиль формата : Main@Main
Параметр BVOP формата : Да
Параметр матрицы формата : По умолчанию
Продолжительность : 29 м.
Вид битрейта : Переменный
Битрейт : 3414 Кбит/сек
Номинальный битрейт : 9800 Кбит/сек
Ширина : 720 пикс.
Высота : 576 пикс.
Соотношение сторон : 16:9
Частота кадров : 25,000 кадр/сек
Стандарт вещания : PAL
Цветовое пространство : YUV
Подвыборка цветности : 4:2:0
Битовая глубина : 8 бит
Тип развёртки : Чересстрочная
Порядок развёртки : Верхнее поле первое
Метод сжатия : С потерями
Бит/(Пиксели*Кадры) : 0.329
Размер потока : 720 Мбайт (70%)

Аудио #1
Идентификатор : 189 (0xBD)-128 (0x80)
Формат : AC-3
Формат/Информация : Audio Coding 3
Расширение режима : CM (complete main)
Режим смешивания : DVD-Video
Продолжительность : 29 м.
Вид битрейта : Постоянный
Битрейт : 448 Кбит/сек
Каналы : 6 каналов
Расположение каналов : Front: L C R, Side: L R, LFE
Частота : 48,0 КГц
Битовая глубина : 16 бит
Метод сжатия : С потерями
Размер потока : 94,5 Мбайт (9%)

Аудио #2
Идентификатор : 189 (0xBD)-131 (0x83)
Формат : AC-3
Формат/Информация : Audio Coding 3
Расширение режима : CM (complete main)
Режим смешивания : DVD-Video
Продолжительность : 29 м.
Вид битрейта : Постоянный
Битрейт : 448 Кбит/сек
Каналы : 6 каналов
Расположение каналов : Front: L C R, Side: L R, LFE
Частота : 48,0 КГц
Битовая глубина : 16 бит
Метод сжатия : С потерями
Размер потока : 94,5 Мбайт (9%)

Аудио #3
Идентификатор : 189 (0xBD)-132 (0x84)
Формат : AC-3
Формат/Информация : Audio Coding 3
Расширение режима : CM (complete main)
Режим смешивания : DVD-Video
Продолжительность : 29 м.
Вид битрейта : Постоянный
Битрейт : 448 Кбит/сек
Каналы : 6 каналов
Расположение каналов : Front: L C R, Side: L R, LFE
Частота : 48,0 КГц
Битовая глубина : 16 бит
Метод сжатия : С потерями
Размер потока : 94,5 Мбайт (9%)

Текст #1
Идентификатор : 189 (0xBD)-32 (0x20)
Формат : RLE
Формат/Информация : Run-length encoding
Режим смешивания : DVD-Video
Продолжительность : 29 м.

Текст #2
Идентификатор : 189 (0xBD)-35 (0x23)
Формат : RLE
Формат/Информация : Run-length encoding
Режим смешивания : DVD-Video
Продолжительность : 29 м.

Текст #3
Идентификатор : 189 (0xBD)-36 (0x24)
Формат : RLE
Формат/Информация : Run-length encoding
Режим смешивания : DVD-Video
Продолжительность : 29 м.

Текст #4
Идентификатор : 189 (0xBD)-33 (0x21)
Формат : RLE
Формат/Информация : Run-length encoding
Режим смешивания : DVD-Video

Текст #5
Идентификатор : 189 (0xBD)-34 (0x22)
Формат : RLE
Формат/Информация : Run-length encoding
Режим смешивания : DVD-Video

Текст #6
Идентификатор : 189 (0xBD)-37 (0x25)
Формат : RLE
Формат/Информация : Run-length encoding
Режим смешивания : DVD-Video

Качество: DVD5
Формат: DVD Video
Видео кодек: MPEG2
Аудио кодек: AC3
Видео: PAL 16:9 (720x576) VBR, Auto Letterboxed
Аудио:
Русский (Дубляж) Dolby Digital 5.1 (48kHz; 448Kbps);
Русский (MVO) Dolby Digital 5.1 (48kHz; 448Kbps);
Английский Dolby Digital 5.1 (48kHz; 448Kbps)
Субтитры: Русские, Английские, Итальянские, Испанские, Португальские, Немецкие, Польские
Раздача от группы:




   Похожие торренты   Торрент   Размер 
В этой теме нет новых непрочитанных сообщений. Эрин Брокович / Erin Brockovich (2000) HDRip-AVC | D

76 | 10

745.13 МБ

В этой теме нет новых непрочитанных сообщений. Эрин Брокович / Erin Brockovich (2000) HDRip от Scarabey | D

7 | 0

798.88 МБ

В этой теме нет новых непрочитанных сообщений. Эрин Брокович / Erin Brockovich (2000) BDRip-AVC | iPad | D

29 | 8

3.63 ГБ

В этой теме нет новых непрочитанных сообщений. Эрин Брокович / Erin Brockovich (2000) BDRip 1080p | D

308 | 20

9.36 ГБ

В этой теме нет новых непрочитанных сообщений. Эрин Брокович / Erin Brockovich (2000) HDRip-AVC | iPhone

21 | 4

725.45 МБ

В этой теме нет новых непрочитанных сообщений. Эрин Брокович / Erin Brockovich (2000) HDRip от Scarabey | D

В этой теме нет новых непрочитанных сообщений. Эрин Брокович / Erin Brockovich (Стивен Содерберг) [2000, драма, биография, HDRip] DUB / Драмы

59 | 0

1.45 ГБ




Вы не можете начинать темы
Вы не можете отвечать на сообщения
Вы не можете редактировать свои сообщения
Вы не можете удалять свои сообщения
Вы не можете добавлять вложения

Перейти:  
 Вход
ppkBB3cker v.2 © 2008-2014 @ PPK
[ Time : 0.036s | 15 Queries | GZIP : Off ]

cron