img image001 image001 image001 image001 image001 image001 image001 image001 image001 image001 image001 image001 image001 image001 image001 image001
Planets Sun Sun Sun
Статистика раздачи
Автор: Снежана | Размер: 4.37 ГБ | Добавлен: 21 июл 2013
Раздают: 11    Качают: 5
Скачать торрент
Скачать торрент
Описание торрента

СообщениеДобавлено: 21 июл 2013 

#77

Информация о фильме
Название: Девочка и лисенок
Оригинальное название: Le renard et l'enfant
Год выхода: 2007
Жанр: Драма, приключения, семейный
Режиссер: Люк Жаке
В ролях: Бертилль Ноэль-Брюно, Изабелль Карре, Томас Лалиберте, Амбра Ангиолини, Кейт Уинслет

О фильме:
Одним прекрасным осенним утром на лесной тропинке девочка заметила лисичку. Она не испугалась зверька и подошла к нему. Так начинается самая удивительная история их дружбы. Благодаря своему новому другу, девочка открывает для себя таинственный мир дикой природы. Ребенка ждут невероятные приключения, которые изменят ее жизнь.

Страна: Франция
Продолжительность: 01:36:27
Перевод: Проф(многоголосый)+ оригинальная дорожка

Файл
Кодек: Н.264
Качество: BDRip 720p
Видео: 1280x544 , 5094Кбит/сек , 24,000 кадр/сек , 0.305 bit/pixel
Звук:
48 kHz, DTS,3/2 (L,C,R,l,r) + LFE ch, ~755.00 kbps avg (Рус)
48 kHz, AC3,3/2 (L,C,R,l,r) + LFE ch, ~448.00 kbps avg (Фр)
Субтитры: Русские

Семпл

Общее
Уникальный идентификатор : 185344697986896675741452723304841982037 (0x8B701723B5B11B8B8B2DA1414AF9B055)
Полное имя : D:торрентLe.renard.et.l'enfant.2007.н264.BDRip720p.mkv
Формат : Matroska
Версия формата : Version 2
Размер файла : 4,37 Гбайт
Продолжительность : 1 ч. 36 м.
Общий поток : 6484 Кбит/сек
Дата кодирования : UTC 2011-08-15 07:39:48
Программа кодирования : mkvmerge v4.9.1 ('Ich will') built on Jul 11 2011 23:53:15
Библиотека кодирования : libebml v1.2.1 + libmatroska v1.1.1

Видео
Идентификатор : 1
Формат : AVC
Формат/Информация : Advanced Video Codec
Профиль формата : High@L4.1
Параметр CABAC формата : Да
Параметр ReFrames формата : 12 кадров
Параметры GOP формата : M=1, N=24
Идентификатор кодека : V_MPEG4/ISO/AVC
Продолжительность : 1 ч. 36 м.
Битрейт : 5094 Кбит/сек
Ширина : 1280 пикс.
Высота : 544 пикс.
Соотношение сторон : 2,35:1
Частота кадров : 24,000 кадр/сек
Цветовое пространство : YUV
Подвыборка цветности : 4:2:0
Битовая глубина : 8 бит
Тип развёртки : Прогрессивная
Бит/(Пиксели*Кадры) : 0.305
Размер потока : 3,34 Гбайт (77%)
Библиотека кодирования : x264 core 116 r2044 392e762
Настройки программы : cabac=1 / ref=12 / deblock=1:-2:-2 / analyse=0x3:0x113 / me=umh / subme=9 / psy=1 / psy_rd=1.00:0.15 / mixed_ref=1 / me_range=32 / chroma_me=1 / trellis=1 / 8x8dct=1 / cqm=0 / deadzone=21,11 / fast_pskip=0 / chroma_qp_offset=-3 / threads=6 / sliced_threads=0 / nr=0 / decimate=1 / interlaced=0 / bluray_compat=0 / constrained_intra=0 / bframes=11 / b_pyramid=2 / b_adapt=2 / b_bias=0 / direct=3 / weightb=1 / open_gop=0 / weightp=2 / keyint=250 / keyint_min=24 / scenecut=40 / intra_refresh=0 / rc_lookahead=50 / rc=2pass / mbtree=1 / bitrate=5094 / ratetol=1.0 / qcomp=0.60 / qpmin=0 / qpmax=69 / qpstep=4 / cplxblur=20.0 / qblur=0.5 / ip_ratio=1.40 / aq=1:1.00
Язык : English

Аудио #1
Идентификатор : 2
Формат : DTS
Формат/Информация : Digital Theater Systems
Идентификатор кодека : A_DTS
Продолжительность : 1 ч. 36 м.
Вид битрейта : Постоянный
Битрейт : 755 Кбит/сек
Каналы : 6 каналов
Расположение каналов : Front: L C R, Side: L R, LFE
Частота : 48,0 КГц
Битовая глубина : 24 бит
Метод сжатия : С потерями
Размер потока : 521 Мбайт (12%)
Язык : Russian

Аудио #2
Идентификатор : 3
Формат : AC-3
Формат/Информация : Audio Coding 3
Расширение режима : CM (complete main)
Идентификатор кодека : A_AC3
Продолжительность : 1 ч. 36 м.
Вид битрейта : Постоянный
Битрейт : 640 Кбит/сек
Каналы : 6 каналов
Расположение каналов : Front: L C R, Side: L R, LFE
Частота : 48,0 КГц
Битовая глубина : 16 бит
Метод сжатия : С потерями
Размер потока : 442 Мбайт (10%)
Язык : French

Текст
Идентификатор : 4
Формат : VobSub
Режим смешивания : zlib
Идентификатор кодека : S_VOBSUB
Идентификатор кодека/Информация : The same subtitle format used on DVDs
Язык : Russian

Меню
00:00:00.000 : en:00:00:00.000
00:08:23.917 : en:00:08:23.917
00:15:12.833 : en:00:15:12.833
00:21:55.833 : en:00:21:55.833
00:26:10.000 : en:00:26:10.000
00:31:56.083 : en:00:31:56.083
00:38:07.333 : en:00:38:07.333
00:42:01.542 : en:00:42:01.542
00:47:54.333 : en:00:47:54.333
00:56:09.875 : en:00:56:09.875
01:01:09.875 : en:01:01:09.875
01:10:21.000 : en:01:10:21.000
01:14:34.292 : en:01:14:34.292
01:20:09.917 : en:01:20:09.917
01:26:46.583 : en:01:26:46.583
01:31:45.625 : en:01:31:45.625




Релиз от:



   Похожие торренты   Торрент   Размер 
В этой теме нет новых непрочитанных сообщений. Девочка и лисенок / Le renard et l'enfant (2007) BDRip 1080p

21 | 5

7.76 ГБ

В этой теме нет новых непрочитанных сообщений. Девочка и лисенок / Le Renard Et L'enfant (2007) BDRip от HQ-ViDEO

68 | 3

1.46 ГБ

В этой теме нет новых непрочитанных сообщений. Девочка и лисенок / Le renard et l'enfant (2007) BDRip от HQCLUB

28 | 2

1.45 ГБ

В этой теме нет новых непрочитанных сообщений. Девочка и лисенок / Le renard et l'enfant (2007) DVDRip от ExKinoRay

22 | 1

1.37 ГБ

В этой теме нет новых непрочитанных сообщений. Чистильщик / Cleaner (2007) BDRip 720p от FREEISLAND

13 | 3

4.37 ГБ

В этой теме нет новых непрочитанных сообщений. Красавчик / Keinohrhasen (2007) BDRip 720p от FREEISLAND

9 | 4

5.33 ГБ

В этой теме нет новых непрочитанных сообщений. Хитмэн / Hitman (2007) BDRip 720p от FREEISLAND

18 | 6

4.37 ГБ




Вы не можете начинать темы
Вы не можете отвечать на сообщения
Вы не можете редактировать свои сообщения
Вы не можете удалять свои сообщения
Вы не можете добавлять вложения

Перейти:  
Для Мосгорсуда, Роскомнадзора и рекламодателей: mosgorsud-torrent[собачка]yandex.ru
 Вход
ppkBB3cker v.2 © 2008-2014 @ PPK
[ Time : 0.033s | 18 Queries | GZIP : Off ]

cron