img image001 image001 image001 image001 image001 image001 image001 image001 image001 image001 image001 image001 image001 image001 image001 image001

Planets Sun Sun Sun
Статистика раздачи
Автор: Nickolas3434 | Размер: 17.97 ГБ | Добавлен: 19 окт 2014
Раздают: 16    Качают: 9
Скачать торрент
Скачать торрент
Описание торрента

СообщениеДобавлено: 19 окт 2014 

Информация о фильме
Название: 1941
Оригинальное название: 1941
Год выпуска: 1979
Жанр: Комедия, военный
Режиссер: Стивен Спилберг
В ролях: Дэн Эйкройд, Нед Битти, Джон Белуши, Лоррэйн Гари, Бобби Ди Чикко, Мюррэй Хэмилтон, Кристофер Ли, Тим Мэтисон, Тосиро Мифунэ, Уоррен Оутс
Описание: Комедийный фильм о панике в Лос-Анджелесе после известий о нападении японцев на Перл-Харбор и о приближении японской подводной лодки к берегам Калифорнии с заданием уничтожить Голливуд.

Выпущено: США / Universal Pictures, Columbia Pictures Corporation
Продолжительность: 02:26:05
Перевод: Профессиональный многоголосый, авторский
Файл
Качество: BDRip 1080p
Видео: MPEG-4 AVC, 12500 Кбит/с, 1920x814, 23.976 кадр/с
Аудио #1: Русский (DTS, 6 ch, 1509 Кбит/с) / Профессиональный многоголосый
Аудио #2: Русский (AC3, 6 ch, 384 Кбит/с) / Профессиональный многоголосый
Аудио #3: Русский (DTS, 6 ch, 1509 Кбит/с) / Авторский одноголосый (Гаврилов)
Аудио #4: Украинский (АС3, 2 ch, 192 Кбит/с) / Профессиональный многоголосый (Так Треба Продакшн)
Аудио #5: Английский (DTS, 6 ch, 1509 Кбит/с)
Субтитры: Русские, английские

x264 [info]: frame I:1269 Avg QP:16.95 size:212997
x264 [info]: frame P:45912 Avg QP:19.01 size: 99787
x264 [info]: frame B:162987 Avg QP:20.99 size: 54266
x264 [info]: consecutive B-frames: 2.0% 2.6% 11.8% 11.3% 15.5% 52.0% 3.5% 0.7% 0.4% 0.2%
************************************************************************************************************************
Общее
Уникальный идентификатор : 221536013473960484112986064647884783267 (0xA6AA48C20CCA6CFD92181B8E70FE3EA3)
Полное имя : D:Mои раздачи1941(1979)BDRip.1080p-MediaClub.mkv
Формат : Matroska
Версия формата : Version 4 / Version 2
Размер файла : 18,0 Гбайт
Продолжительность : 2 ч. 26 м.
Общий поток : 17,6 Мбит/сек
Название фильма : -=MediaClub-kaspr=-
Дата кодирования : UTC 2014-10-18 08:45:18
Программа кодирования : mkvmerge v6.9.1 ('Blue Panther') 64bit built on Apr 18 2014 18:23:38
Библиотека кодирования : libebml v1.3.0 + libmatroska v1.4.1
Видео
Идентификатор : 1
Формат : AVC
Формат/Информация : Advanced Video Codec
Профиль формата : High@L4.1
Параметр CABAC формата : Да
Параметр ReFrames формата : 5 кадров
Идентификатор кодека : V_MPEG4/ISO/AVC
Продолжительность : 2 ч. 26 м.
Битрейт : 12,5 Мбит/сек
Ширина : 1920 пикселей
Высота : 814 пикселей
Соотношение сторон : 2,35:1
Режим частоты кадров : Постоянный
Частота кадров : 23,976 кадра/сек
Цветовое пространство : YUV
Субдискретизация насыщенности : 4:2:0
Битовая глубина : 8 бит
Тип развёртки : Прогрессивная
Бит/(Пиксели*Кадры) : 0.334
Размер потока : 12,4 Гбайт (69%)
Заголовок : -=MediaClub-kaspr=-
Библиотека кодирования : x264 core 142 r2431+42 c69a006 tMod [8-bit@4:2:0 X86_64]
Настройки программы : cabac=1 / ref=5 / deblock=1:-3:-3 / analyse=0x3:0x113 / me=umh / subme=11 / psy=1 / fade_compensate=0.00 / psy_rd=1.00:0.00 / mixed_ref=1 / me_range=32 / chroma_me=1 / trellis=2 / 8x8dct=1 / cqm=0 / deadzone=21,11 / fast_pskip=0 / chroma_qp_offset=-2 / threads=12 / lookahead_threads=2 / sliced_threads=0 / nr=0 / decimate=0 / interlaced=0 / bluray_compat=0 / constrained_intra=0 / fgo=0 / bframes=9 / b_pyramid=2 / b_adapt=2 / b_bias=0 / direct=3 / weightb=1 / open_gop=0 / weightp=2 / keyint=240 / keyint_min=23 / scenecut=40 / intra_refresh=0 / rc=2pass / mbtree=0 / bitrate=12500 / ratetol=1.0 / qcomp=0.60 / qpmin=0:0:0 / qpmax=69:69:69 / qpstep=4 / cplxblur=20.0 / qblur=0.5 / ip_ratio=1.40 / pb_ratio=1.30 / aq=4:0.80 / aq-sensitivity=10.00 / aq-factor=1.00:1.00:1.00 / aq2=0 / aq3=0
Default : Да
Forced : Нет
Аудио #1
Идентификатор : 2
Формат : DTS
Формат/Информация : Digital Theater Systems
Режим : 16
Параметр Endianness формата : Big
Идентификатор кодека : A_DTS
Продолжительность : 2 ч. 26 м.
Вид битрейта : Постоянный
Битрейт : 1509 Кбит/сек
Каналы : 6 каналов
Расположение каналов : Front: L C R, Side: L R, LFE
Частота : 48,0 КГц
Битовая глубина : 24 бит
Метод сжатия : С потерями
Размер потока : 1,54 Гбайт (9%)
Заголовок : MVO
Язык : Russian
Default : Да
Forced : Нет
Аудио #2
Идентификатор : 3
Формат : AC-3
Формат/Информация : Audio Coding 3
Расширение режима : CM (complete main)
Параметр Endianness формата : Big
Идентификатор кодека : A_AC3
Продолжительность : 2 ч. 26 м.
Вид битрейта : Постоянный
Битрейт : 384 Кбит/сек
Каналы : 6 каналов
Расположение каналов : Front: L C R, Side: L R, LFE
Частота : 48,0 КГц
Битовая глубина : 16 бит
Метод сжатия : С потерями
Размер потока : 401 Мбайт (2%)
Заголовок : MVO
Язык : Russian
Default : Нет
Forced : Нет
Аудио #3
Идентификатор : 4
Формат : DTS
Формат/Информация : Digital Theater Systems
Режим : 16
Параметр Endianness формата : Big
Идентификатор кодека : A_DTS
Продолжительность : 2 ч. 26 м.
Вид битрейта : Постоянный
Битрейт : 1509 Кбит/сек
Каналы : 6 каналов
Расположение каналов : Front: L C R, Side: L R, LFE
Частота : 48,0 КГц
Битовая глубина : 24 бит
Метод сжатия : С потерями
Размер потока : 1,54 Гбайт (9%)
Заголовок : Гаврилов
Язык : Russian
Default : Нет
Forced : Нет
Аудио #4
Идентификатор : 5
Формат : AC-3
Формат/Информация : Audio Coding 3
Расширение режима : CM (complete main)
Параметр Endianness формата : Big
Идентификатор кодека : A_AC3
Продолжительность : 2 ч. 26 м.
Вид битрейта : Постоянный
Битрейт : 192 Кбит/сек
Каналы : 2 канала
Расположение каналов : Front: L R
Частота : 48,0 КГц
Битовая глубина : 16 бит
Метод сжатия : С потерями
Размер потока : 201 Мбайт (1%)
Заголовок : MVO
Язык : Ukrainian
Default : Нет
Forced : Нет
Аудио #5
Идентификатор : 6
Формат : DTS
Формат/Информация : Digital Theater Systems
Режим : 16
Параметр Endianness формата : Big
Идентификатор кодека : A_DTS
Продолжительность : 2 ч. 26 м.
Вид битрейта : Постоянный
Битрейт : 1509 Кбит/сек
Каналы : 6 каналов
Расположение каналов : Front: L C R, Side: L R, LFE
Частота : 48,0 КГц
Битовая глубина : 24 бит
Метод сжатия : С потерями
Размер потока : 1,54 Гбайт (9%)
Язык : English
Default : Нет
Forced : Нет
Текст #1
Идентификатор : 7
Формат : UTF-8
Идентификатор кодека : S_TEXT/UTF8
Идентификатор кодека/Информация : UTF-8 Plain Text
Язык : Russian
Default : Нет
Forced : Нет
Текст #2
Идентификатор : 8
Формат : UTF-8
Идентификатор кодека : S_TEXT/UTF8
Идентификатор кодека/Информация : UTF-8 Plain Text
Язык : English
Default : Нет
Forced : Нет
Меню
00:00:00.000 : en:Chapter 01
00:07:20.272 : en:Chapter 02
00:16:35.953 : en:Chapter 03
00:25:31.987 : en:Chapter 04
00:37:06.724 : en:Chapter 05
00:48:00.752 : en:Chapter 06
00:55:04.718 : en:Chapter 07
01:08:51.460 : en:Chapter 08
01:16:06.311 : en:Chapter 09
01:27:29.994 : en:Chapter 10
01:35:22.425 : en:Chapter 11
01:41:23.035 : en:Chapter 12
01:46:49.986 : en:Chapter 13
01:56:24.477 : en:Chapter 14
02:03:13.719 : en:Chapter 15
02:10:47.673 : en:Chapter 16
02:16:20.672 : en:Chapter 17
02:19:51.466 : en:Chapter 18

Релиз: |



   Похожие торренты   Торрент   Размер 
В этой теме нет новых непрочитанных сообщений. 1941 / 1941 (1979) BDRemux 1080p от MediaClub | P, A

20 | 15

47.49 ГБ

В этой теме нет новых непрочитанных сообщений. 1941 / 1941 (1979) BDRip 720p | Theatrical Cut

12 | 6

3.92 ГБ

В этой теме нет новых непрочитанных сообщений. 1941 / 1941 (1979) BDRip от HQCLUB | Director's Cut

116 | 15

2.18 ГБ

В этой теме нет новых непрочитанных сообщений. 1941 / 1941 (1979) BDRip 720p от NNNB | P, A

96 | 20

7.76 ГБ

В этой теме нет новых непрочитанных сообщений. 1941 / 1941 (1979) BDRip от HQCLUB | Theatrical Cut

51 | 8

2.18 ГБ

В этой теме нет новых непрочитанных сообщений. Вермахт в России 1941-1945 / The Wehrmacht in Russia 1941-1945 (1999) DVDRip от Pshichko66

14 | 2

2.05 ГБ

В этой теме нет новых непрочитанных сообщений. Дамбо / Dumbo (1941) BDRip 1080p | 60 fps | D

28 | 3

5.51 ГБ




Вы не можете начинать темы
Вы не можете отвечать на сообщения
Вы не можете редактировать свои сообщения
Вы не можете удалять свои сообщения
Вы не можете добавлять вложения

Перейти:  
 Вход
ppkBB3cker v.2 © 2008-2014 @ PPK
[ Time : 0.031s | 17 Queries | GZIP : Off ]

cron