img image001 image001 image001 image001 image001 image001 image001 image001 image001 image001 image001 image001 image001 image001 image001 image001

Planets Sun Sun Sun
Статистика раздачи
Автор: Nickolas3434 | Размер: 7.55 ГБ | Добавлен: 09 ноя 2014
Раздают: 47    Качают: 17
Скачать торрент
Скачать торрент
Описание торрента

СообщениеДобавлено: 09 ноя 2014 


Информация о фильме
Название: Ярость
Оригинальное название: The Rage
Год выхода: 2007
Жанр: Ужасы
Режиссер: Роберт Куртцман
В ролях: Эндрю Дивофф, Мисти Мандэй, Райан Хукс, Шон Серино, Рэйчел Шеер, Энтони Кларк, Крис Нельсон, Рэджи Бэннистер, Анджела Гаспарек, Мэтт Джеррамс
О фильме: История о безумном ученом, который экспериментирует с вирусом бешенства на невинных жертвах в лаборатории, расположенной глубоко в лесу. Но созданные им монстры сбегают и начинают охотится на людей в поисках пищи…

Страна: США
Студия: Precinct 13 Entertainment
Продолжительность: 01:25:32
Перевод: Профессиональный многоголосый закадровый
Файл
Кодек: MPEG-2
Качество: DVD-9
Видео: MPEG2, NTSC, 16:9 (720x480) VBR, 29 кадр/с
Звук: Русский / Английский / DD 5.1 (448Kbps); Английский DD 2.0 (192Kbps)
Субтитры: Испанские
1. Английский
2. Английский (комментарии режиссера)
3. Профессиональный многоголосый закадровый
Title:
Size: 7.55 Gb ( 7 916 644 KBytes ) - DVD-9
Enabled regions: 1, 2, 3, 4, 5, 6, 7, 8
VTS_01 :
Play Length: 01:25:32
Video: NTSC 16:9 (720x480) VBR, Auto Pan&Scan
Audio:
English (Dolby AC3, 6 ch)
English (Dolby AC3, 2 ch)
Russian (Dolby AC3, 6 ch)
Subtitles:
Espanol
VTS_02 :
Play Length: 00:00:12
Video: NTSC 4:3 (720x480) VBR
VTS_03 :
Play Length: 00:00:09
Video: NTSC 4:3 (720x480) VBR
Audio:
English (Dolby AC3, 2 ch)
VTS_04 :
Play Length: 00:00:01
Video: NTSC 16:9 (720x480) VBR, Auto Pan&Scan
VTS_05 :
Play Length: 00:04:12+00:03:45+00:03:23+01:18:58
Video: NTSC 4:3 (720x480) VBR
Audio:
English (Dolby AC3, 2 ch)
Menu Video:
NTSC 4:3 (720x480) VBR
Menu Subtitles:
Not specified
Menu English Language Unit :
Root Menu
Subpicture Menu
Audio Menu
Chapter (PTT) Menu
Общее
Полное имя : D:ААА2ЯРОСТЬVIDEO_TSVTS_01_1.VOB
Формат : MPEG-PS
Размер файла : 1024 Мбайт
Продолжительность : 23 м.
Режим общего битрейта : Переменный
Общий поток : 6180 Кбит/сек
Видео
Идентификатор : 224 (0xE0)
Формат : MPEG Video
Версия формата : Version 2
Профиль формата : Main@Main
Параметр BVOP формата : Да
Параметр матрицы формата : Выборочная
Параметр GOP формата : Variable
Продолжительность : 23 м.
Вид битрейта : Переменный
Битрейт : 4969 Кбит/сек
Максимальный битрейт : 9802 Кбит/сек
Ширина : 720 пикселей
Высота : 480 пикселей
Соотношение сторон : 16:9
Частота кадров : 29,970 кадров/сек
Стандарт вещания : NTSC
Цветовое пространство : YUV
Субдискретизация насыщенности : 4:2:0
Битовая глубина : 8 бит
Тип развёртки : Чересстрочная
Порядок развёртки : Верхнее поле первое
Метод сжатия : С потерями
Бит/(Пиксели*Кадры) : 0.480
Размер потока : 823 Мбайт (80%)
Аудио #1
Идентификатор : 189 (0xBD)-128 (0x80)
Формат : AC-3
Формат/Информация : Audio Coding 3
Расширение режима : CM (complete main)
Параметр Endianness формата : Big
Режим смешивания : DVD-Video
Продолжительность : 23 м.
Вид битрейта : Постоянный
Битрейт : 448 Кбит/сек
Каналы : 6 каналов
Расположение каналов : Front: L C R, Side: L R, LFE
Частота : 48,0 КГц
Битовая глубина : 16 бит
Метод сжатия : С потерями
Размер потока : 74,2 Мбайт (7%)
Аудио #2
Идентификатор : 189 (0xBD)-129 (0x81)
Формат : AC-3
Формат/Информация : Audio Coding 3
Расширение режима : CM (complete main)
Параметр Endianness формата : Big
Режим смешивания : DVD-Video
Продолжительность : 23 м.
Вид битрейта : Постоянный
Битрейт : 192 Кбит/сек
Каналы : 2 канала
Расположение каналов : Front: L R
Частота : 48,0 КГц
Битовая глубина : 16 бит
Метод сжатия : С потерями
Размер потока : 31,8 Мбайт (3%)
Аудио #3
Идентификатор : 189 (0xBD)-130 (0x82)
Формат : AC-3
Формат/Информация : Audio Coding 3
Расширение режима : CM (complete main)
Параметр Endianness формата : Big
Режим смешивания : DVD-Video
Продолжительность : 23 м.
Вид битрейта : Постоянный
Битрейт : 448 Кбит/сек
Каналы : 6 каналов
Расположение каналов : Front: L C R, Side: L R, LFE
Частота : 48,0 КГц
Битовая глубина : 16 бит
Метод сжатия : С потерями
Размер потока : 74,2 Мбайт (7%)
Текст #1
Идентификатор : 224 (0xE0)-CC3
Формат : EIA-608
Режим смешивания, доп. информация : Muxed in Video #1
Вид битрейта : Постоянный
Размер потока : 0,00 байт (0%)
Текст #2
Идентификатор : 189 (0xBD)-32 (0x20)
Формат : RLE
Формат/Информация : Run-length encoding
Режим смешивания : DVD-Video
Меню



   Похожие торренты   Торрент   Размер 
В этой теме нет новых непрочитанных сообщений. Ярость / The Rage (1997) DVDRip | P2

39 | 12

1.46 ГБ

В этой теме нет новых непрочитанных сообщений. Честь и ярость / Rage and Honor (1992) DVD-5

14 | 3

4.24 ГБ

В этой теме нет новых непрочитанных сообщений. Ярость мертвецов / Rage of The Undead (2011) HDRip | L2

29 | 4

719.31 МБ

В этой теме нет новых непрочитанных сообщений. Ярость чести / Rage of Honor (1987) HDTVRip-AVC | P2, A

88 | 19

2.18 ГБ

В этой теме нет новых непрочитанных сообщений. Честь и ярость / Rage and Honor (1992) DVDRip

8 | 31

999.92 МБ

В этой теме нет новых непрочитанных сообщений. Кровная ярость / Blood Rage (1987) BDRip | L1

5 | 2

1.46 ГБ

В этой теме нет новых непрочитанных сообщений. Кровная ярость / Blood Rage (1987) BDRemux 1080р | L1

0 | 0

18.23 ГБ




Вы не можете начинать темы
Вы не можете отвечать на сообщения
Вы не можете редактировать свои сообщения
Вы не можете удалять свои сообщения
Вы не можете добавлять вложения

Перейти:  
 Вход
ppkBB3cker v.2 © 2008-2014 @ PPK
[ Time : 0.421s | 15 Queries | GZIP : Off ]

cron