img image001 image001 image001 image001 image001 image001 image001 image001 image001 image001 image001 image001 image001 image001 image001 image001

Planets Sun Sun Sun
Статистика раздачи
Автор: Nickolas3434 | Размер: 4.19 ГБ | Добавлен: 14 ноя 2014
Раздают: 81    Качают: 15
Скачать торрент
Скачать торрент
Описание торрента

СообщениеДобавлено: 14 ноя 2014 

Информация о фильме
Название: Лихач
Оригинальное название: Hot Rod
Год выхода: 2007
Режиссер: Акива Шаффер
В ролях: Энди Сэмберг, Джорма Такконе, Исла Фишер, Билл Хэйдер, Дэнни Р. МакБрайд, Иэн МакШэйн, Сисси Спэйсек, Уилл Арнетт, Крис Парнелл, Марк Эчисон
О фильме:
Род Кимбл, каскадер-самоучка. Он убежден, что смелость у него в крови. Он верит, что он — сын знаменитого гонщика Эвела Книвела, отважного каскадера, погибшего во время выполнения трюков. Род намерен достойно продолжить путь своего отца. Но проблема в том... что у него мало что получается!

Страна: США
Продолжительность: 01:27:56
Перевод: Профессиональный (многоголосый, закадровый)
Файл
Кодек: MKV
Качество: BDRip 720p
Видео: MPEG4-AVC, 6477 Кбит/с, 1280x544
Звук: AC3, 6 ch, 448 Кбит/с
Субтитры: Английские
Общее
Уникальный идентификатор : 193124737316926682075299745315829786704 (0x914A78B19B3DF9ABBBFAE290EFAB2850)
Полное имя : C:UsersDownloadsHot Rod.mkv
Формат : Matroska
Версия формата : Version 1
Размер файла : 4,19 Гбайт
Продолжительность : 1 ч. 27 м.
Общий поток : 6815 Кбит/сек
Название фильма : Hot Rod @ - PGor -
Дата кодирования : UTC 2007-12-01 20:26:11
Программа кодирования : mkvmerge v2.1.0 ('Another Place To Fall') built on Aug 19 2007 13:40:07
Библиотека кодирования : libebml v0.7.7 + libmatroska v0.8.1
Видео
Идентификатор : 1
Формат : AVC
Формат/Информация : Advanced Video Codec
Профиль формата : High@L5.1
Параметр CABAC формата : Да
Параметр ReFrames формата : 8 кадров
Идентификатор кодека : V_MPEG4/ISO/AVC
Продолжительность : 1 ч. 27 м.
Битрейт : 6477 Кбит/сек
Ширина : 1280 пикселей
Высота : 544 пикселя
Соотношение сторон : 2,35:1
Режим частоты кадров : Постоянный
Частота кадров : 23,976 кадра/сек
Цветовое пространство : YUV
Субдискретизация насыщенности : 4:2:0
Битовая глубина : 8 бит
Тип развёртки : Прогрессивная
Бит/(Пиксели*Кадры) : 0.388
Размер потока : 3,83 Гбайт (91%)
Заголовок : Hot Rod
Библиотека кодирования : x264 core 57 svn-699C
Настройки программы : cabac=1 / ref=5 / deblock=1:-3:-2 / analyse=0x1:0 / me=umh / fpel_cmp=sad / subme=7 / me-prepass=0 / brdo=1 / mixed_ref=1 / me_range=16 / chroma_me=1 / trellis=1 / 8x8dct=0 / cqm=2 / deadzone=21,11 / chroma_qp_offset=0 / threads=6 / nr=0 / decimate=1 / mbaff=0 / bframes=3 / b_pyramid=1 / b_adapt=1 / b_bias=0 / direct=1 / wpredb=1 / bime=1 / keyint=250 / keyint_min=25 / scenecut=40(pre) / rc=2pass / bitrate=6477 / ratetol=1.0 / rceq='blurCplx^(1-qComp)' / qcomp=0.60 / qpmin=10 / qpmax=51 / qpstep=4 / cplxblur=20.0 / qblur=0.5 / ip_ratio=1.40 / pb_ratio=1.30
Язык : English
Default : Да
Forced : Нет
Аудио
Идентификатор : 2
Формат : AC-3
Формат/Информация : Audio Coding 3
Расширение режима : CM (complete main)
Параметр Endianness формата : Big
Идентификатор кодека : A_AC3
Продолжительность : 1 ч. 27 м.
Вид битрейта : Постоянный
Битрейт : 448 Кбит/сек
Каналы : 6 каналов
Расположение каналов : Front: L C R, Side: L R, LFE
Частота : 48,0 КГц
Битовая глубина : 16 бит
Метод сжатия : С потерями
Размер потока : 282 Мбайт (7%)
Заголовок : Dolby Digital AC3 5.1 @ 448 kbps
Язык : Russian
Default : Да
Forced : Нет
Текст
Идентификатор : 3
Формат : UTF-8
Идентификатор кодека : S_TEXT/UTF8
Идентификатор кодека/Информация : UTF-8 Plain Text
Заголовок : Subtitles
Язык : English
Default : Да
Forced : Нет




   Похожие торренты   Торрент   Размер 
В этой теме нет новых непрочитанных сообщений. Лихач / Hot Rod (2007) BDRip от Koenig | P2

38 | 2

1.45 ГБ

В этой теме нет новых непрочитанных сообщений. Лихач / Hot Rod (2007) HDRip

2 | 1

1.73 ГБ

В этой теме нет новых непрочитанных сообщений. Лихач / Hot Rod (2007) DVDRip

10 | 7

1.37 ГБ

В этой теме нет новых непрочитанных сообщений. Бен Икс / Ben X (2007) BDRip 720p | L2, | L1

204 | 21

5.06 ГБ

В этой теме нет новых непрочитанных сообщений. Пророк / Next (2007) BDRip 720p

13 | 7

5.48 ГБ

В этой теме нет новых непрочитанных сообщений. Рэкетир (2007) BDRip 720p

15 | 0

5.32 ГБ

В этой теме нет новых непрочитанных сообщений. Рэкетир (2007) BDRip 720p

839 | 159

4.35 ГБ




Вы не можете начинать темы
Вы не можете отвечать на сообщения
Вы не можете редактировать свои сообщения
Вы не можете удалять свои сообщения
Вы не можете добавлять вложения

Перейти:  
 Вход
ppkBB3cker v.2 © 2008-2014 @ PPK
[ Time : 0.043s | 19 Queries | GZIP : Off ]

cron