img image001 image001 image001 image001 image001 image001 image001 image001 image001 image001 image001 image001 image001 image001 image001 image001

Planets Sun Sun Sun
Статистика раздачи
Автор: Снежана | Размер: 4.86 ГБ | Добавлен: 21 июл 2013
Раздают: 4    Качают: 4
Скачать торрент
Скачать торрент
Описание торрента

СообщениеДобавлено: 21 июл 2013 

Проект А 2 часть / Операция А 2 часть / Project A 2/ А gai waak juk jap



Страна: Гонконг
Жанр: боевик, комедия
Год выпуска: 1984
Продолжительность: 01:45:20

Перевод: Профессиональный (двухголосовой закадровый) R5
Cубтитры: русские
Оригинальная аудиодорожка: китайский

Режиссер: Джеки Чан / Jackie Chan

В ролях: Джеки Чан, Саммо Хунг Кам-Бо, Юэнь Бяо, Дик Вэй, Марс, Винни Вонг, По Тай, Ву Лонг Чунг, Хой Сан Ли, Хой-Шан Кван

Описание: Отважный дракон Ма, прославившийся благодаря уничтожению пиратского гнезда на китайском море, получает новое назначение — его делают начальником округа.
Основная причина этого назначения состоит в том, что власти сомневаются в чистоплотности его предшественника Чуна, как оказывается впоследствии, напрасно. В результате мастерски выполненной подставки дракон попадает в тюрьму. Теперь доказать свою невиновность он может только разоблачив Чуна…



Сэмпл: http://multi-up.com/549517

Тип релиза: BDRip 720p
Контейнер: MKV

Видео: MPEG-4 AVC, 1280x544, 4599 кбит/сек, 23.976 fps
Аудио: 48 kHz, AC3 5.1 ch, ~448.00 kbps avg DVO
Аудио 2: 48 кГц, DTS, 3/2 (L,C,R,l,r) + LFE ch, 1510 кбит/сек original
Формат субтитров: softsub (SRT)
ОПЕРАЦИЯ А 2(DVO).1987.BluRay.720p.x264.DTS.MySilu.mkv
Формат : Matroska
Версия формата : Version 2
Размер файла : 4,86 Гбайт
Продолжительность : 1 ч. 46 м.
Общий поток : 6556 Кбит/сек
Название фильма : (1987) Проект А: Часть 2
Дата кодирования : UTC 2011-09-01 08:05:47
Программа кодирования : mkvmerge v3.2.0 ('Beginnings') built on Feb 12 2010 16:46:17
Библиотека кодирования : libebml v0.7.9 + libmatroska v0.8.1

Видео
Идентификатор : 1
Формат : AVC
Формат/Информация : Advanced Video Codec
Профиль формата : High@L4.1
Параметр CABAC формата : Да
Параметр ReFrames формата : 8 кадров
Параметры GOP формата : M=1, N=48
Идентификатор кодека : V_MPEG4/ISO/AVC
Продолжительность : 1 ч. 46 м.
Битрейт : 4599 Кбит/сек
Ширина : 1280 пикс.
Высота : 544 пикс.
Соотношение сторон : 2,35:1
Частота кадров : 23,976 кадр/сек
Цветовое пространство : YUV
Подвыборка цветности : 4:2:0
Битовая глубина : 8 бит
Тип развёртки : Прогрессивная
Бит/(Пиксели*Кадры) : 0.275
Размер потока : 3,31 Гбайт (68%)
Заголовок : Project.A..II.1987.BluRay.720p.x264.DTS.DD51.DualAudio.MySilu
Библиотека кодирования : x264 core 116 r2057 0ba8a9c
Настройки программы : cabac=1 / ref=8 / deblock=1:-2:-2 / analyse=0x3:0x133 / me=umh / subme=9 / psy=1 / psy_rd=1.20:0.20 / mixed_ref=1 / me_range=16 / chroma_me=1 / trellis=2 / 8x8dct=1 / cqm=0 / deadzone=21,11 / fast_pskip=1 / chroma_qp_offset=-3 / threads=6 / sliced_threads=0 / nr=0 / decimate=0 / interlaced=0 / bluray_compat=0 / constrained_intra=0 / bframes=3 / b_pyramid=2 / b_adapt=2 / b_bias=0 / direct=3 / weightb=1 / open_gop=0 / weightp=2 / keyint=250 / keyint_min=2 / scenecut=40 / intra_refresh=0 / rc_lookahead=60 / rc=2pass / mbtree=1 / bitrate=4599 / ratetol=1.0 / qcomp=0.60 / qpmin=10 / qpmax=51 / qpstep=4 / cplxblur=20.0 / qblur=0.5 / vbv_maxrate=38000 / vbv_bufsize=38000 / nal_hrd=none / ip_ratio=1.40 / aq=1:1.00
Язык : English

Аудио #1
Идентификатор : 2
Формат : AC-3
Формат/Информация : Audio Coding 3
Расширение режима : CM (complete main)
Идентификатор кодека : A_AC3
Продолжительность : 1 ч. 46 м.
Вид битрейта : Постоянный
Битрейт : 448 Кбит/сек
Каналы : 6 каналов
Расположение каналов : Front: L C R, Side: L R, LFE
Частота : 48,0 КГц
Битовая глубина : 16 бит
Метод сжатия : С потерями
Размер потока : 340 Мбайт (7%)
Заголовок : DVO R5
Язык : Russian

Аудио #2
Идентификатор : 3
Формат : DTS
Формат/Информация : Digital Theater Systems
Идентификатор кодека : A_DTS
Продолжительность : 1 ч. 46 м.
Вид битрейта : Постоянный
Битрейт : 1510 Кбит/сек
Каналы : 6 каналов
Расположение каналов : Front: L C R, Side: L R, LFE
Частота : 48,0 КГц
Битовая глубина : 24 бит
Метод сжатия : С потерями
Размер потока : 1,12 Гбайт (23%)
Заголовок : Cantonese
Язык : Chinese

Текст
Идентификатор : 4
Формат : UTF-8
Идентификатор кодека : S_TEXT/UTF8
Идентификатор кодека/Информация : UTF-8 Plain Text
Заголовок : SUB
Язык : Russian








   Похожие торренты   Торрент   Размер 
В этой теме нет новых непрочитанных сообщений. Проект А: Часть 2 / «A» gai waak juk jap / Project A II (1987) BDRip-AVC от MediaClub

43 | 7

3.09 ГБ

В этой теме нет новых непрочитанных сообщений. Проект А / Операция А / Project A / «A» gai waak (1983) HDRip от Assassin's Creed | КПК

14 | 4

911.69 МБ

В этой теме нет новых непрочитанных сообщений. Проект А 2 / Операция А 2 / Project A 2/ «A» gai waak juk jap (1987) HDRip от Assassin's Creed | КПК

14 | 4

917.89 МБ

В этой теме нет новых непрочитанных сообщений. Проект А: Часть 2 / Project A2 / «A» gai wak 2 (1987) DVD9 (custom) от New-Team | 2xP2, 2xA, P1

61 | 180

7.91 ГБ

В этой теме нет новых непрочитанных сообщений. Пятница, 13-е. Часть 4: Последняя глава / Friday the 13th: The Final Chapter (1984) BDRip 720p by msltel | P, A, L1

11 | 11

6.84 ГБ

В этой теме нет новых непрочитанных сообщений. Пятница, 13-е. Часть 4: Последняя глава / Friday the 13th: The Final Chapter (1984) BDRip-AVC

16 | 7

2.18 ГБ

В этой теме нет новых непрочитанных сообщений. Пятница, 13-е. Часть 4: Последняя глава / Friday the 13th: The Final Chapter (1984) BDRip-AVC | P, L1, A

36 | 11

2.91 ГБ




Вы не можете начинать темы
Вы не можете отвечать на сообщения
Вы не можете редактировать свои сообщения
Вы не можете удалять свои сообщения
Вы не можете добавлять вложения

Перейти:  
 Вход
ppkBB3cker v.2 © 2008-2014 @ PPK
[ Time : 0.025s | 18 Queries | GZIP : Off ]

cron