img image001 image001 image001 image001 image001 image001 image001 image001 image001 image001 image001 image001 image001 image001 image001

Planets Sun Sun Sun
Статистика раздачи
Автор: Nickolas3434 | Размер: 11.46 ГБ | Добавлен: 29 ноя 2014
Раздают: 8    Качают: 3
Скачать торрент
Скачать торрент
Описание торрента

СообщениеДобавлено: 29 ноя 2014 

Год выпуска: 1981
Страна: Франция, Великобритания, Германия (ФРГ)
Жанр: Драма, мелодрама
Продолжительность: 01:44:01
Перевод: профессиональный многоголосый
Субтитры: английские
Режиссёр: Жюст Жэкин
В ролях: Сильвия Кристель, Николас Клэй, Шэйн Брайант, Питер Беннет, Энн Митчелл, Элизабет Сприггс, Паскаль Риво, Энтони Хэд, Бесси Лав
Описание: В результате ранения на войне сэр Клиффорд Чаттерлей был частично парализован и был вынужден отныне передвигаться на коляске. Это его состояние делало невозможными нормальные сексуальные отношения с молодой красавицей женой Констанс. Конни (так ласково называл жену Чаттерлей) любила мужа и была готова сохранять ему верность, ухаживая за инвалидом. Понимая, что существование молодой женщины без секса ненормально, сэр Клиффорд благородно разрешил ей, если найдётся подходящий мужчина, завести любовника. Он даже был согласен дать ребёнку своё имя, если жена забеременеет. Но произошло то, чего сэр Чаттерлей ожидать никак не мог. Его Конни влюбилась в лесника Оливера Мэллорса... Фильм снят по мотивам романа Дэвида Герберта Лоуренса «Любовник леди Чаттерлей» (Lady Chatterley`s Lover, 1928).

Качество: BDRip 1080p Сравнение с исходником
Формат: MKV
Видео кодек: H.264
Аудио кодек: AC3
Видео: 1920x1040, 14.7 Mbps, 23.976 кадра/с, 0.308 bpp
Аудио 1: русский, AC3, 192 kbps, 2 ch, 48 kHz [профессиональный многоголосый, СПб, 5 канал]
Аудио 2: русский, AC3, 192 kbps, 2 ch, 48 kHz [профессиональный многоголосый, НТВ+]
Аудио 3: английский, AC3, 320 kbps, 2 ch, 48 kHz [оригинал]
Имеются неименованные главы/чаптеры.
Общее
Уникальный идентификатор : 193211497090676593141803162001211447382 (0x915B2E47E7A96388A1DAA0DC8A00D856)
Полное имя : D:VideoLjubovnik ledi Chatterlej.1981.BDRip.1080p.mkv
Формат : Matroska
Версия формата : Version 4 / Version 2
Размер файла : 11,5 Гбайт
Продолжительность : 1 ч. 44 м.
Общий поток : 15,8 Мбит/сек
Дата кодирования : UTC 2014-11-28 07:54:32
Программа кодирования : mkvmerge v7.3.0 ('Nouages') 64bit built on Oct 22 2014 18:53:34
Библиотека кодирования : libebml v1.3.0 + libmatroska v1.4.1
_STATISTICS_WRITING_APP : mkvmerge v7.3.0 ('Nouages') 64bit built on Oct 22 2014 18:53:34
_STATISTICS_WRITING_DATE_UTC : 2014-11-28 07:54:32
_STATISTICS_TAGS : BPS DURATION NUMBER_OF_FRAMES NUMBER_OF_BYTES
DURATION : 01:40:59.800000000
NUMBER_OF_FRAMES : 710
NUMBER_OF_BYTES : 26544
Видео
Идентификатор : 1
Формат : AVC
Формат/Информация : Advanced Video Codec
Профиль формата : High@L4.1
Параметр CABAC формата : Да
Параметр ReFrames формата : 4 кадра
Идентификатор кодека : V_MPEG4/ISO/AVC
Продолжительность : 1 ч. 44 м.
Битрейт : 14,7 Мбит/сек
Ширина : 1920 пикселей
Высота : 1040 пикселей
Соотношение сторон : 1,85:1
Режим частоты кадров : Постоянный
Частота кадров : 23,976 кадра/сек
Цветовое пространство : YUV
Субдискретизация насыщенности : 4:2:0
Битовая глубина : 8 бит
Тип развёртки : Прогрессивная
Бит/(Пиксели*Кадры) : 0.308
Размер потока : 10,7 Гбайт (94%)
Заголовок : BDRip -- STarankov
Библиотека кодирования : x264 core 142 r2431 ac76440
Настройки программы : cabac=1 / ref=4 / deblock=1:-1:-1 / analyse=0x3:0x113 / me=umh / subme=10 / psy=1 / psy_rd=1.00:0.15 / mixed_ref=1 / me_range=32 / chroma_me=1 / trellis=2 / 8x8dct=1 / cqm=0 / deadzone=21,11 / fast_pskip=1 / chroma_qp_offset=-3 / threads=6 / lookahead_threads=1 / sliced_threads=0 / nr=0 / decimate=1 / interlaced=0 / bluray_compat=0 / constrained_intra=0 / bframes=8 / b_pyramid=2 / b_adapt=2 / b_bias=0 / direct=3 / weightb=1 / open_gop=0 / weightp=2 / keyint=230 / keyint_min=23 / scenecut=40 / intra_refresh=0 / rc_lookahead=40 / rc=crf / mbtree=0 / crf=18.7 / qcomp=0.60 / qpmin=0 / qpmax=69 / qpstep=4 / vbv_maxrate=50000 / vbv_bufsize=62500 / crf_max=0.0 / nal_hrd=none / filler=0 / ip_ratio=1.40 / pb_ratio=1.30 / aq=1:1.00
Язык : English
Default : Да
Forced : Нет
DURATION : 01:44:01.235000000
NUMBER_OF_FRAMES : 149640
NUMBER_OF_BYTES : 11748512722
_STATISTICS_WRITING_APP : mkvmerge v7.3.0 ('Nouages') 64bit built on Oct 22 2014 18:53:34
_STATISTICS_WRITING_DATE_UTC : 2014-11-28 07:54:32
_STATISTICS_TAGS : BPS DURATION NUMBER_OF_FRAMES NUMBER_OF_BYTES
Аудио #1
Идентификатор : 2
Формат : AC-3
Формат/Информация : Audio Coding 3
Расширение режима : CM (complete main)
Параметр Endianness формата : Big
Идентификатор кодека : A_AC3
Продолжительность : 1 ч. 44 м.
Вид битрейта : Постоянный
Битрейт : 192 Кбит/сек
Каналы : 2 канала
Расположение каналов : Front: L R
Частота : 48,0 КГц
Битовая глубина : 16 бит
Метод сжатия : С потерями
Размер потока : 143 Мбайт (1%)
Заголовок : MVO (СПб, 5 канал)
Язык : Russian
Default : Да
Forced : Нет
Аудио #2
Идентификатор : 3
Формат : AC-3
Формат/Информация : Audio Coding 3
Расширение режима : CM (complete main)
Параметр Endianness формата : Big
Идентификатор кодека : A_AC3
Продолжительность : 1 ч. 44 м.
Вид битрейта : Постоянный
Битрейт : 192 Кбит/сек
Каналы : 2 канала
Расположение каналов : Front: L R
Частота : 48,0 КГц
Битовая глубина : 16 бит
Метод сжатия : С потерями
Размер потока : 143 Мбайт (1%)
Заголовок : MVO (HTB+)
Язык : Russian
Default : Нет
Forced : Нет
Аудио #3
Идентификатор : 4
Формат : AC-3
Формат/Информация : Audio Coding 3
Расширение режима : CM (complete main)
Параметр Endianness формата : Big
Идентификатор кодека : A_AC3
Продолжительность : 1 ч. 44 м.
Вид битрейта : Постоянный
Битрейт : 320 Кбит/сек
Каналы : 2 канала
Расположение каналов : Front: L R
Частота : 48,0 КГц
Битовая глубина : 16 бит
Метод сжатия : С потерями
Размер потока : 238 Мбайт (2%)
Заголовок : Original
Язык : English
Default : Нет
Forced : Нет
Текст
Идентификатор : 5
Формат : UTF-8
Идентификатор кодека : S_TEXT/UTF8
Идентификатор кодека/Информация : UTF-8 Plain Text
Заголовок : английский
Язык : English
Default : Нет
Forced : Нет
Меню
00:00:00.000 : en:00:00:00.000
00:05:01.092 : en:00:05:01.092
00:11:16.467 : en:00:11:16.467
00:15:40.523 : en:00:15:40.523
00:22:02.446 : en:00:22:02.446
00:26:22.247 : en:00:26:22.247
00:34:32.737 : en:00:34:32.737
00:40:46.819 : en:00:40:46.819
00:45:09.457 : en:00:45:09.457
00:49:26.213 : en:00:49:26.213
00:59:17.804 : en:00:59:17.804
01:09:39.550 : en:01:09:39.550
01:22:33.073 : en:01:22:33.073
01:30:57.410 : en:01:30:57.410
01:35:33.978 : en:01:35:33.978
01:42:03.909 : en:01:42:03.909




   Похожие торренты   Торрент   Размер 
В этой теме нет новых непрочитанных сообщений. Любовник Леди Чаттерлей / Lady Chatterley's Lover (1981) BDRip 720p by msltel | P

11 | 4

5.76 ГБ

В этой теме нет новых непрочитанных сообщений. Любовник Леди Чаттерлей / Lady Chatterley's Lover (1981) BDRip 1080p от Freeisland

10 | 30

4.37 ГБ

В этой теме нет новых непрочитанных сообщений. Любовник леди Чаттерлей / Lady Chatterley's Lover (1981) BDRip

12 | 2

742.69 МБ

В этой теме нет новых непрочитанных сообщений. Любовник Леди Чаттерлей / Lady Chatterley's Lover (1981) BDRip от HQCLUB

3 | 34

1.45 ГБ

В этой теме нет новых непрочитанных сообщений. Любовник Леди Чаттерлей / Lady Chatterley's Lover (1981) BDRip от olegek70

30 | 13

1.46 ГБ

В этой теме нет новых непрочитанных сообщений. Любовник Леди Чаттерлей / Lady Chatterley's Lover (1981) DVDRip

7 | 32

911.92 МБ

В этой теме нет новых непрочитанных сообщений. Любовник Леди Чаттерлей / Lady Chatterley's Lover (1981) BDRemux

1 | 26

20.13 ГБ




Вы не можете начинать темы
Вы не можете отвечать на сообщения
Вы не можете редактировать свои сообщения
Вы не можете удалять свои сообщения
Вы не можете добавлять вложения

Перейти:  
Для Мосгорсуда, Роскомнадзора и рекламодателей: mosgorsud-torrent[собачка]yandex.ru
 Вход
ppkBB3cker v.2 © 2008-2014 @ PPK
[ Time : 0.191s | 16 Queries | GZIP : Off ]

Торрент трекер RUTOR.IN, Не можете зайти на rutor.org? Какой новый адрес рутор? Какое зеркало рутор? Не работает rutor.org и зеркала? Тогда наш торрент специально для вас. Rutor.in неофициальное зеркало rutor. В случае если у Вас заблокирован rutor или вдруг Вы не можете на него зайти, то Вы без труда сможете скачать бесплатно и без рекламы последние новинки кино, игр, сериалов и прочего у нас, на Rutor.in. Не нужно использовать прокси, чтобы зайти на рутор, достаточно воспользоваться нашим ресурсом. Все новые фильмы, игры, сериалы, книги и музыка за 2013 и 2014 годы через торрент бесплатно. Скачивайте фильмы в хорошем качестве, игры для пк, xbox, playstation без регистрации. У нас вы найдете новые Зарубежные сериалы и Русские сериалы 2013, 2014, 2015 годов. Оставайтесь с нами, качайте любимые фильмы, игры, сериалы, книги и музыку.