img image001 image001 image001 image001 image001 image001 image001 image001 image001 image001 image001 image001 image001 image001 image001 image001

Planets Sun Sun Sun
Статистика раздачи
Автор: Nickolas3434 | Размер: 12.31 ГБ | Добавлен: 05 дек 2014
Раздают: 113    Качают: 23
Скачать торрент
Скачать торрент
Описание торрента

СообщениеДобавлено: 05 дек 2014 

Звездный путь / Star Trek (2009) BDRip


Год выпуска: 2009
Производство: USA, Germany / Paramount Pictures, Spyglass Entertainment, Bad Robot
Жанр: фантастика, боевик, приключения

Режиссер: Джей Джей Абрамс
Актеры: Крис Пайн, Закари Куинто, Зои Салдана, Карл Урбан, Эрик Бана, Антон Ельчин, Саймон Пегг,
Джон Чо, Леонард Нимой, Брюс Гринвуд

Описание фильма: Когда Нерон с планеты Ромул приходит из будущего, чтобы отомстить Федерации, конкуренты Кирк и Спок должны объединиться, чтобы не дать ему разрушить все, что им дорого. Во время этого будоражащего путешествия, наполненного эффектными боями, юмором и космическими угрозами, новоиспеченные члены команды военного корабля «Энтерпрайз» смело встретятся лицом к лицу с невообразимыми опасностями...

Премия «Оскар» за Лучший грим, 2010 г.

Перевод: профессиональный (полное дублирование), профессиональный (многоголосый закадровый), авторский (одноголосый закадровый)
Вид субтитров: вшитые отключаемые
Язык субтитров: русские, английские



Продолжительность: 02:06:50
Качество: BDRip (720p)

Видео: MPEG-4 AVC/H.264, 1280 x 534 (2,40:1), 8 888 kbps, 23.976 fps, 0.542 b/px
Аудио # 1: АС3, 6 ch, 640 kbps, 48 000 Hz [дублированный]
Аудио # 2: АС3, 6 ch, 448 kbps, 48 000 Hz [многоголосый закадровый]
Аудио # 3: DTS, 6 ch, 1509 kbps, 48 000 Hz [одноголосый закадровый (Ю.Сербин)]
Аудио # 4: АС3, 6 ch, 448 kbps, 48 000 Hz [одноголосый закадровый (А.Гаврилов)]
Аудио # 5: АС3, 6 ch, 448 kbps, 48 000 Hz [дублированный (Украинский)]
Аудио # 6: DTS, 6 ch, 1509 kbps, 48 000 Hz [оригинальный]

Общее
Уникальный идентификатор : 195046802301946939925938826025645738003 (0x92BCA5D063D9C214A6BDD7C977B58813)
Полное имя : E:Video[2009] Звездный путь [BDRip] [720p].mkv
Формат : Matroska
Версия формата : Version 4 / Version 2
Размер файла : 12,3 Гбайт
Продолжительность : 2 ч. 6 м.
Общий поток : 13,9 Мбит/сек
Название фильма : Звездный путь / Star Trek (2009) BDRip [720p]
Дата кодирования : UTC 2014-12-01 20:44:14
Программа кодирования : mkvmerge v7.2.0 ('On Every Street') 32bit built on Sep 13 2014 15:42:11
Библиотека кодирования : libebml v1.3.0 + libmatroska v1.4.1
DURATION : 01:57:17.905000000
NUMBER_OF_FRAMES : 1596
NUMBER_OF_BYTES : 62226
_STATISTICS_WRITING_APP : mkvmerge v7.2.0 ('On Every Street') 32bit built on Sep 13 2014 15:42:11
_STATISTICS_WRITING_DATE_UTC : 2014-12-01 20:44:14
_STATISTICS_TAGS : BPS DURATION NUMBER_OF_FRAMES NUMBER_OF_BYTES

Видео
Идентификатор : 1
Формат : AVC
Формат/Информация : Advanced Video Codec
Профиль формата : High@L4.1
Параметр CABAC формата : Да
Параметр ReFrames формата : 12 кадров
Идентификатор кодека : V_MPEG4/ISO/AVC
Продолжительность : 2 ч. 6 м.
Битрейт : 8888 Кбит/сек
Ширина : 1280 пикселей
Высота : 534 пикселя
Соотношение сторон : 2,40:1
Соотношение сторон в оригинале : 2,40:1
Режим частоты кадров : Постоянный
Частота кадров : 23,976 кадра/сек
Цветовое пространство : YUV
Субдискретизация насыщенности : 4:2:0
Битовая глубина : 8 бит
Тип развёртки : Прогрессивная
Бит/(Пиксели*Кадры) : 0.542
Размер потока : 7,63 Гбайт (62%)
Заголовок : [2009] Звездный путь / Star Trek [BDRip] [720p]
Библиотека кодирования : x264 core 132 r2309kMod 3b1f1f7
Настройки программы : cabac=1 / ref=12 / deblock=1:-2:-2 / analyse=0x3:0x133 / me=tesa / subme=11 / psy=1 / fade_compensate=0.00 / psy_rd=1.00:0.05 / mixed_ref=1 / me_range=24 / chroma_me=1 / trellis=2 / 8x8dct=1 / cqm=0 / deadzone=21,11 / fast_pskip=0 / chroma_qp_offset=-3 / threads=12 / lookahead_threads=3 / sliced_threads=0 / nr=0 / decimate=1 / interlaced=0 / bluray_compat=0 / constrained_intra=0 / bframes=16 / b_pyramid=2 / b_adapt=2 / b_bias=0 / direct=3 / weightb=1 / open_gop=0 / weightp=2 / keyint=250 / keyint_min=23 / scenecut=40 / intra_refresh=0 / rc=2pass / mbtree=0 / bitrate=8888 / ratetol=1.0 / qcomp=0.75 / qpmin=0 / qpmax=69 / qpstep=4 / cplxblur=20.0 / qblur=0.5 / ip_ratio=1.25 / pb_ratio=1.15 / aq=1:0.70 / zones=1655,2245,b=1.3/3049,3159,b=1.3/3605,3661,b=1.3/4049,4192,b=1.3/6289,6339,b=1.3/7259,7346,b=1.3/9680,9793,b=1.3/10039,10128,b=1.3/10800,10825,b=1.3/13192,13403,b=1.3/14180,14255,b=1.3/15542,15640,b=1.3/15745,15774,b=1.3/16495,16614,b=1.3/16643,17157,b=1.2/21094,21480,b=1.3/21788,22164,b=1.3/22340,22379,b=1.3/22485,22539,b=1.3/22551,22757,b=1.3/28414,28641,b=1.3/40720,40963,b=1.3/42129,42334,b=1.3/67735,67863,b=1.3/67960,68037,b=1.3/68107,68198,b=1.3/68284,68515,b=1.3/68938,69052,b=1.3/81463,81481,b=1.2/81553,81564,b=1.2/89436,89938,b=1.3/89958,90379,b=1.3/109687,109845,b=1.3/112987,113078,b=1.3/139102,139277,b=1.3/142802,143047,b=1.3/154031,154084,b=1.3/154141,154289,b=1.3/154826,154905,b=1.3/155004,155121,b=1.3/155169,155329,b=1.3/155778,155837,b=1.3/156155,156305,b=1.3/156327,156352,b=1.3/156374,156482,b=1.3/157134,157520,b=1.3/157610,157815,b=1.3/158853,159249,b=1.3/159378,159557,b=1.3/159742,159903,b=1.2/159992,160211,b=1.2/160399,160482,b=1.3/160624,160748,b=1.3/161358,161530,b=1.3/161590,161630,b=1.3/162093,162211,b=1.3
Язык : English
Default : Да
Forced : Нет
Коэффициенты матрицы : BT.709
colour_range : Limited
DURATION : 02:06:50.228000000
NUMBER_OF_FRAMES : 182463
NUMBER_OF_BYTES : 8451479416
_STATISTICS_WRITING_APP : mkvmerge v7.2.0 ('On Every Street') 32bit built on Sep 13 2014 15:42:11
_STATISTICS_WRITING_DATE_UTC : 2014-12-01 20:44:14
_STATISTICS_TAGS : BPS DURATION NUMBER_OF_FRAMES NUMBER_OF_BYTES

Аудио #1
Идентификатор : 2
Формат : AC-3
Формат/Информация : Audio Coding 3
Расширение режима : CM (complete main)
Параметр Endianness формата : Big
Идентификатор кодека : A_AC3
Продолжительность : 2 ч. 6 м.
Вид битрейта : Постоянный
Битрейт : 640 Кбит/сек
Каналы : 6 каналов
Расположение каналов : Front: L C R, Side: L R, LFE
Частота : 48,0 КГц
Битовая глубина : 16 бит
Метод сжатия : С потерями
Размер потока : 581 Мбайт (5%)
Заголовок : Дублированный
Язык : Russian
Default : Да
Forced : Нет

Аудио #2
Идентификатор : 3
Формат : AC-3
Формат/Информация : Audio Coding 3
Расширение режима : CM (complete main)
Параметр Endianness формата : Big
Идентификатор кодека : A_AC3
Продолжительность : 2 ч. 6 м.
Вид битрейта : Постоянный
Битрейт : 448 Кбит/сек
Каналы : 6 каналов
Расположение каналов : Front: L C R, Side: L R, LFE
Частота : 48,0 КГц
Битовая глубина : 16 бит
Метод сжатия : С потерями
Размер потока : 406 Мбайт (3%)
Заголовок : Многоголосый закадровый
Язык : Russian
Default : Нет
Forced : Нет

Аудио #3
Идентификатор : 4
Формат : DTS
Формат/Информация : Digital Theater Systems
Режим : 16
Параметр Endianness формата : Big
Идентификатор кодека : A_DTS
Продолжительность : 2 ч. 6 м.
Вид битрейта : Постоянный
Битрейт : 1509 Кбит/сек
Каналы : 6 каналов
Расположение каналов : Front: L C R, Side: L R, LFE
Частота : 48,0 КГц
Битовая глубина : 24 бит
Метод сжатия : С потерями
Размер потока : 1,34 Гбайт (11%)
Заголовок : Одноголосый закадровый (Ю.Сербин)
Язык : Russian
Default : Нет
Forced : Нет

Аудио #4
Идентификатор : 5
Формат : AC-3
Формат/Информация : Audio Coding 3
Расширение режима : CM (complete main)
Параметр Endianness формата : Big
Идентификатор кодека : A_AC3
Продолжительность : 2 ч. 6 м.
Вид битрейта : Постоянный
Битрейт : 448 Кбит/сек
Каналы : 6 каналов
Расположение каналов : Front: L C R, Side: L R, LFE
Частота : 48,0 КГц
Битовая глубина : 16 бит
Метод сжатия : С потерями
Размер потока : 406 Мбайт (3%)
Заголовок : Одноголосый закадровый (А.Гаврилов)
Язык : Russian
Default : Нет
Forced : Нет

Аудио #5
Идентификатор : 6
Формат : AC-3
Формат/Информация : Audio Coding 3
Расширение режима : CM (complete main)
Параметр Endianness формата : Big
Идентификатор кодека : A_AC3
Продолжительность : 2 ч. 6 м.
Вид битрейта : Постоянный
Битрейт : 448 Кбит/сек
Каналы : 6 каналов
Расположение каналов : Front: L C R, Side: L R, LFE
Частота : 48,0 КГц
Битовая глубина : 16 бит
Метод сжатия : С потерями
Размер потока : 406 Мбайт (3%)
Заголовок : Дублированный
Язык : Ukrainian
Default : Нет
Forced : Нет

Аудио #6
Идентификатор : 7
Формат : DTS
Формат/Информация : Digital Theater Systems
Режим : 16
Параметр Endianness формата : Big
Идентификатор кодека : A_DTS
Продолжительность : 2 ч. 6 м.
Вид битрейта : Постоянный
Битрейт : 1509 Кбит/сек
Каналы : 6 каналов
Расположение каналов : Front: L C R, Side: L R, LFE
Частота : 48,0 КГц
Битовая глубина : 24 бит
Метод сжатия : С потерями
Размер потока : 1,34 Гбайт (11%)
Заголовок : Оригинальный
Язык : English
Default : Нет
Forced : Нет

Текст #1
Идентификатор : 8
Формат : UTF-8
Идентификатор кодека : S_TEXT/UTF8
Идентификатор кодека/Информация : UTF-8 Plain Text
Заголовок : Russian
Язык : Russian
Default : Нет
Forced : Нет

Текст #2
Идентификатор : 9
Формат : UTF-8
Идентификатор кодека : S_TEXT/UTF8
Идентификатор кодека/Информация : UTF-8 Plain Text
Заголовок : Ukrainian
Язык : Ukrainian
Default : Нет
Forced : Нет

Текст #3
Идентификатор : 10
Формат : UTF-8
Идентификатор кодека : S_TEXT/UTF8
Идентификатор кодека/Информация : UTF-8 Plain Text
Заголовок : English
Язык : English
Default : Нет
Forced : Нет

Текст #4
Идентификатор : 11
Формат : UTF-8
Идентификатор кодека : S_TEXT/UTF8
Идентификатор кодека/Информация : UTF-8 Plain Text
Заголовок : English (SDH)
Язык : English
Default : Нет
Forced : Нет

Меню
00:00:00.000 : en:00:00:00.000
00:11:57.216 : en:00:11:57.216
00:19:45.101 : en:00:19:45.101
00:28:09.104 : en:00:28:09.104
00:35:33.506 : en:00:35:33.506
00:44:10.398 : en:00:44:10.398
00:52:21.722 : en:00:52:21.722
01:01:33.607 : en:01:01:33.607
01:11:40.087 : en:01:11:40.087
01:20:39.501 : en:01:20:39.501
01:27:35.292 : en:01:27:35.292
01:36:29.575 : en:01:36:29.575
01:44:34.268 : en:01:44:34.268
01:53:13.412 : en:01:53:13.412
01:58:20.552 : en:01:58:20.552



   Похожие торренты   Торрент   Размер 
В этой теме нет новых непрочитанных сообщений. Звездный путь / Star Trek (2009) BDRip 720p от NNNB | D

457 | 45

4.36 ГБ

В этой теме нет новых непрочитанных сообщений. Звездный путь / Star Trek (2009) BDRip 720p от Leonardo and Scarabey | Лицензия

190 | 38

6.16 ГБ

В этой теме нет новых непрочитанных сообщений. Звездный путь / Star Trek (2009) BDRip 1080p

458 | 49

11.5 ГБ

В этой теме нет новых непрочитанных сообщений. Звездный путь: Дилогия / Star Trek: Dilogy (2009-2013) BDRip

550 | 108

5.82 ГБ

В этой теме нет новых непрочитанных сообщений. Звездный путь / Star Trek (2009) UHD BDRemux 2160p от ExKinoRay | 4K | HDR | D, A, P | Лицензия

7 | 10

54.71 ГБ

В этой теме нет новых непрочитанных сообщений. Звездный путь: Восстание / Star Trek: Insurrection (1998) BDRip 1080p | P, A

6 | 0

9.02 ГБ

В этой теме нет новых непрочитанных сообщений. Звёздный Путь: Следующее Поколение / Star Trek: The Next Generation [S05] (1987-1994) BDRip-AVC

56 | 28

20.85 ГБ




Вы не можете начинать темы
Вы не можете отвечать на сообщения
Вы не можете редактировать свои сообщения
Вы не можете удалять свои сообщения
Вы не можете добавлять вложения

Перейти:  
 Вход
ppkBB3cker v.2 © 2008-2014 @ PPK
[ Time : 0.214s | 18 Queries | GZIP : Off ]

cron