img image001 image001 image001 image001 image001 image001 image001 image001 image001 image001 image001 image001 image001 image001 image001 image001

Planets Sun Sun Sun
Статистика раздачи
Автор: Nickolas3434 | Размер: 1.63 ГБ | Добавлен: 05 дек 2014
Раздают: 274    Качают: 29
Скачать торрент
Скачать торрент
Описание торрента

СообщениеДобавлено: 05 дек 2014 

Информация о фильме
Название: Магия лунного света
Оригинальное название: Magic in the Moonlight
Год выхода: 2014
Жанр: Мелодрама, комедия
Режиссер: Вуди Аллен
В ролях: Колин Фёрт, Эмма Стоун, Антония Кларк, Наташа Эндрюс, Валери Больё, Питер Уоллаш, Юрген Цвингель, Вольфганг Писсорс, Себастьен Сиро, Саймон МакБерни

О фильме:
1928 год. Выдающийся иллюзионист по просьбе своего друга и коллеги приезжает на Лазурный Берег разоблачить молодую привлекательную шарлатанку, якобы умеющую вызывать духов умерших. Она очаровала богатого наследника и его мать-вдову, а это не устраивает других членов семьи.


Страна: США
Студия: Dippermouth, Gravier Productions, Perdido Productions, Ske-Dat-De-Dat Productions
Продолжительность: 01:37:37
Перевод: Дублированный (Чистый звук)

Файл
Кодек: MPEG-4 AVC
Качество: HDRip-AVC
Видео: 1609 Кбит/с, 1024x432
Звук: Русский (AC3, 2 ch, 384 Кбит/с), английский (AC3, 6 ch, 384 Кбит/с)
Субтитры: Английские (полные, цветные)

Рип от StarbirS
Релиз группы NovaLan

Aудио#1: Russian: 48 kHz, AC3, 2 (L,R) ch, ~384.00 kbps avg - Дублированный (Чистый звук)
Aудио#2: English: 48 kHz, AC3, 3/2 (L,C,R,l,r) + LFE ch, ~384.00 kbps avg - Оригинал

Субтитры: Английские

x264 [info]: frame I:847 Avg QP:16.36 size: 79920
x264 [info]: frame P:30151 Avg QP:19.69 size: 20191
x264 [info]: frame B:109449 Avg QP:21.40 size: 4667

Формат : Matroska
Версия формата : Version 4 / Version 2
Размер файла : 1,63 Гбайт
Продолжительность : 1 ч. 37 м.
Общий поток : 2392 Кбит/сек
Название фильма : Magic.in.the.Moonlight.2014.x264.D.HDRip.(AVC).NovaLan
Дата кодирования : UTC 2014-12-04 06:06:41
Программа кодирования : mkvmerge v7.3.0 ('Nouages') 64bit built on Oct 22 2014 18:53:34
Библиотека кодирования : libebml v1.3.0 + libmatroska v1.4.1
DURATION : 01:33:31.730000000
NUMBER_OF_FRAMES : 1916
NUMBER_OF_BYTES : 70702
_STATISTICS_WRITING_APP : mkvmerge v7.3.0 ('Nouages') 64bit built on Oct 22 2014 18:53:34
_STATISTICS_WRITING_DATE_UTC : 2014-12-04 06:06:41
_STATISTICS_TAGS : BPS DURATION NUMBER_OF_FRAMES NUMBER_OF_BYTES

Видео
Идентификатор : 1
Формат : AVC
Формат/Информация : Advanced Video Codec
Профиль формата : High@L4.1
Параметр CABAC формата : Да
Параметр ReFrames формата : 9 кадров
Идентификатор кодека : V_MPEG4/ISO/AVC
Продолжительность : 1 ч. 37 м.
Битрейт : 1609 Кбит/сек
Ширина : 1024 пикселя
Высота : 432 пикселя
Соотношение сторон : 2,40:1
Режим частоты кадров : Постоянный
Частота кадров : 23,976 кадра/сек
Цветовое пространство : YUV
Субдискретизация насыщенности : 4:2:0
Битовая глубина : 8 бит
Тип развёртки : Прогрессивная
Бит/(Пиксели*Кадры) : 0.152
Размер потока : 1,07 Гбайт (66%)
Заголовок : Magic.in.the.Moonlight.2014.x264.D.HDRip.(AVC).by.StarbirS
Библиотека кодирования : x264 core 142 r2431 ac76440
Настройки программы : cabac=1 / ref=9 / deblock=1:-3:-3 / analyse=0x3:0x113 / me=umh / subme=11 / psy=1 / psy_rd=1.05:0.15 / mixed_ref=1 / me_range=48 / chroma_me=1 / trellis=2 / 8x8dct=1 / cqm=0 / deadzone=21,11 / fast_pskip=0 / chroma_qp_offset=-3 / threads=12 / lookahead_threads=4 / sliced_threads=0 / nr=0 / decimate=0 / interlaced=0 / bluray_compat=0 / constrained_intra=0 / bframes=8 / b_pyramid=2 / b_adapt=2 / b_bias=0 / direct=3 / weightb=1 / open_gop=0 / weightp=2 / keyint=240 / keyint_min=23 / scenecut=40 / intra_refresh=0 / rc=2pass / mbtree=0 / bitrate=1609 / ratetol=1.0 / qcomp=0.65 / qpmin=0 / qpmax=69 / qpstep=4 / cplxblur=20.0 / qblur=0.5 / ip_ratio=1.40 / pb_ratio=1.30 / aq=2:0.90
Язык : English
Default : Да
Forced : Нет
DURATION : 01:37:37.820000000
NUMBER_OF_FRAMES : 140447
NUMBER_OF_BYTES : 1187320956
_STATISTICS_WRITING_APP : mkvmerge v7.3.0 ('Nouages') 64bit built on Oct 22 2014 18:53:34
_STATISTICS_WRITING_DATE_UTC : 2014-12-04 06:06:41
_STATISTICS_TAGS : BPS DURATION NUMBER_OF_FRAMES NUMBER_OF_BYTES

Аудио #1
Идентификатор : 2
Формат : AC-3
Формат/Информация : Audio Coding 3
Расширение режима : CM (complete main)
Параметр Endianness формата : Big
Идентификатор кодека : A_AC3
Продолжительность : 1 ч. 37 м.
Вид битрейта : Постоянный
Битрейт : 384 Кбит/сек
Каналы : 2 канала
Расположение каналов : Front: L R
Частота : 48,0 КГц
Битовая глубина : 16 бит
Метод сжатия : С потерями
Размер потока : 268 Мбайт (16%)
Заголовок : Дублированный (Чистый звук)
Язык : Russian
Default : Да
Forced : Нет

Аудио #2
Идентификатор : 3
Формат : AC-3
Формат/Информация : Audio Coding 3
Расширение режима : CM (complete main)
Параметр Endianness формата : Big
Идентификатор кодека : A_AC3
Продолжительность : 1 ч. 37 м.
Вид битрейта : Постоянный
Битрейт : 384 Кбит/сек
Каналы : 6 каналов
Расположение каналов : Front: L C R, Side: L R, LFE
Частота : 48,0 КГц
Битовая глубина : 16 бит
Метод сжатия : С потерями
Размер потока : 268 Мбайт (16%)
Язык : English
Default : Нет
Forced : Нет

Текст #1
Идентификатор : 4
Формат : UTF-8
Идентификатор кодека : S_TEXT/UTF8
Идентификатор кодека/Информация : UTF-8 Plain Text
Язык : English
Default : Да
Forced : Нет

Текст #2
Идентификатор : 5
Формат : UTF-8
Идентификатор кодека : S_TEXT/UTF8
Идентификатор кодека/Информация : UTF-8 Plain Text
Заголовок : color
Язык : English
Default : Нет
Forced : Нет

Меню
00:00:00.000 : en:Chapter 01
00:09:37.494 : en:Chapter 02
00:16:11.596 : en:Chapter 03
00:20:17.633 : en:Chapter 04
00:26:40.724 : en:Chapter 05
00:32:47.966 : en:Chapter 06
00:37:48.600 : en:Chapter 07
00:43:56.259 : en:Chapter 08
00:49:36.557 : en:Chapter 09
00:53:57.192 : en:Chapter 10
00:59:15.385 : en:Chapter 11
01:05:28.675 : en:Chapter 12
01:10:43.030 : en:Chapter 13
01:18:20.195 : en:Chapter 14
01:24:43.996 : en:Chapter 15
01:29:39.666 : en:Chapter 16




Релиз от:



   Похожие торренты   Торрент   Размер 
В этой теме нет новых непрочитанных сообщений. Магия лунного света / Magic in the Moonlight (2014) HDRip | Чистый звук

5808 | 773

1.37 ГБ

В этой теме нет новых непрочитанных сообщений. Магия лунного света / Magic in the Moonlight (2014) HDRip от Scarabey | Чистый звук

719 | 97

744.37 МБ

В этой теме нет новых непрочитанных сообщений. Магия лунного света / Magic in the Moonlight (2014) HDRip от Scarabey | Чистый звук

855 | 71

1.44 ГБ

В этой теме нет новых непрочитанных сообщений. Магия лунного света / Magic in the Moonlight (2014) BDRip 720p | Чистый звук

1533 | 201

4.03 ГБ

В этой теме нет новых непрочитанных сообщений. Магия лунного света / Magic in the Moonlight (2014) BDRip 1080 р | Чистый звук

628 | 92

7.9 ГБ

В этой теме нет новых непрочитанных сообщений. Магия лунного света / Magic in the Moonlight (2014) BDRip 720p | Чистый звук

1701 | 184

4.63 ГБ

В этой теме нет новых непрочитанных сообщений. Магия лунного света / Magic in the Moonlight (2014) BDRemux 1080p | Чистый звук

134 | 45

21.35 ГБ




Вы не можете начинать темы
Вы не можете отвечать на сообщения
Вы не можете редактировать свои сообщения
Вы не можете удалять свои сообщения
Вы не можете добавлять вложения

Перейти:  
 Вход
ppkBB3cker v.2 © 2008-2014 @ PPK
[ Time : 0.031s | 16 Queries | GZIP : Off ]

cron