img image001 image001 image001 image001 image001 image001 image001 image001 image001 image001 image001 image001 image001 image001 image001

Planets Sun Sun Sun
Статистика раздачи
Автор: Nickolas3434 | Размер: 2.05 ГБ | Добавлен: 05 дек 2014
Раздают: 202    Качают: 13
Скачать торрент
Скачать торрент
Описание торрента

СообщениеДобавлено: 05 дек 2014 

Информация о фильме
Название: Бандитки
Оригинальное название: Bandidas
Год выхода: 2006
Жанр: Боевик, комедия, приключения, криминал, вестерн
Режиссёр: Хоаким Роннинг, Эспен Сандберг
В ролях: Пенелопа Крус, Сальма Хайек, Стив Зан, Исмаэль 'Ист' Карло, Джусто Мартинез, Ана Офелиа Мургуйя, Эдгар Вивар, Джозеф Д. Рейтман, Денис Арндт, Одра Блейзер, Карл Браун, Гэри Сервантес, Умберто Элисондо, Дая Фернандес, Эрнесто Гомес Крус, Хуан Мануэль Робледо Риос, Серджо Гонзалез, Джулиан Седжуик, Андреа Гонзалез, Сэм Шепард, Дуайт Йокам, Мануэль Руис
О фильме:
Мексика, 1888 год. Две очаровательные налётчицы - образованная европейка и грубоватая мексиканка - наводят ужас на банки Дикого Запада. Никто не может противостоять их изобретательности и неустрашимости. И, тем более, никто не может устоять перед их красотой...

Страна: Франция, Мексика, США
Студия: A.J.O.Z. Films, Canal+ [fr], Europa Corp.
Продолжительность: 01:33:02
Перевод: Дублированный (Мосфильм-Мастер), профессиональный многоголосый (Пятый канал), авторский одноголосый (А. Гаврилов)
Файл
Кодек: XviD
Качество: BDRip [Исходник: Blu-ray Remux (1080p)]
Видео: XviD, 2117 Кбит/с, 720x304 (2.35:1), 23,976 кадр/с
Аудио #1: Русский, Dolby AC3, 48000 Гц, 448 Кбит/с, 6 каналов (5.1) - DUB [Мосфильм-Мастер]
Аудио #2: Русский, Dolby AC3, 48000 Гц, 192 Кбит/с, 2 канала (Стерео) - MVO [Пятый канал]
Аудио #3: Русский, Dolby AC3, 48000 Гц, 384 Кбит/с, 6 каналов (5.1) - AVO [А. Гаврилов]

General
Complete name : Bandidas.2006.Triple.BDRip.avi
Format : AVI
Format/Info : Audio Video Interleave
Format profile : OpenDML
File size : 2.05 GiB
Duration : 1h 33mn
Overall bit rate : 3 159 Kbps
Movie name : Бандитки / Bandidas (2006) BDRip
Genre : Боевик, приключения, комедия, вестерн
Recorded date : 05.12.2014
Writing application : VirtualDubMod 1.5.10.3 (build 2550/release)
Writing library : VirtualDubMod build 2550/release
Copyright : rip by ivandubskoj
Video
ID : 0
Format : MPEG-4 Visual
Format profile : Advanced Simple@L5
Format settings, BVOP : 1
Format settings, QPel : No
Format settings, GMC : No warppoints
Format settings, Matrix : Default (MPEG)
Codec ID : XVID
Codec ID/Hint : XviD
Duration : 1h 33mn
Bit rate : 2 117 Kbps
Width : 720 pixels
Height : 304 pixels
Display aspect ratio : 2.35:1
Frame rate : 23.976 fps
Color space : YUV
Chroma subsampling : 4:2:0
Bit depth : 8 bits
Scan type : Progressive
Compression mode : Lossy
Bits/(Pixel*Frame) : 0.403
Stream size : 1.38 GiB (67%)
Writing library : XviD 73
Audio #1
ID : 1
Format : AC-3
Format/Info : Audio Coding 3
Mode extension : CM (complete main)
Codec ID : 2000
Duration : 1h 33mn
Bit rate mode : Constant
Bit rate : 448 Kbps
Channel(s) : 6 channels
Channel positions : Front: L C R, Side: L R, LFE
Sampling rate : 48.0 KHz
Bit depth : 16 bits
Compression mode : Lossy
Stream size : 298 MiB (14%)
Alignment : Split accross interleaves
Interleave, duration : 64 ms (1.53 video frames)
Interleave, preload duration : 500 ms
Title : Russian, DUB [Мосфильм-Мастер]
Audio #2
ID : 2
Format : AC-3
Format/Info : Audio Coding 3
Mode extension : CM (complete main)
Codec ID : 2000
Duration : 1h 33mn
Bit rate mode : Constant
Bit rate : 192 Kbps
Channel(s) : 2 channels
Channel positions : Front: L R
Sampling rate : 48.0 KHz
Bit depth : 16 bits
Compression mode : Lossy
Stream size : 128 MiB (6%)
Alignment : Split accross interleaves
Interleave, duration : 64 ms (1.53 video frames)
Interleave, preload duration : 500 ms
Title : Russian, MVO [Пятый канал]
Audio #3
ID : 3
Format : AC-3
Format/Info : Audio Coding 3
Mode extension : CM (complete main)
Codec ID : 2000
Duration : 1h 33mn
Bit rate mode : Constant
Bit rate : 384 Kbps
Channel(s) : 6 channels
Channel positions : Front: L C R, Side: L R, LFE
Sampling rate : 48.0 KHz
Bit depth : 16 bits
Compression mode : Lossy
Stream size : 256 MiB (12%)
Alignment : Split accross interleaves
Interleave, duration : 64 ms (1.53 video frames)
Interleave, preload duration : 500 ms
Title : Russian, AVO [А. Гаврилов]



Автор рипа - ivandubskoj



   Похожие торренты   Торрент   Размер 
В этой теме нет новых непрочитанных сообщений. Бандитки / Bandidas (2006) BDRip 720p от ivandubskoj | D, P, P2, A

44 | 2

4.35 ГБ

В этой теме нет новых непрочитанных сообщений. Бандитки / Bandidas (2006) Blu-ray Remux 1080p от ivandubskoj | D, P, A

25 | 14

15.56 ГБ

В этой теме нет новых непрочитанных сообщений. Бандитки / Bandidas (2006) BDRip-AVC

18 | 17

745.04 МБ

В этой теме нет новых непрочитанных сообщений. Бандитки / Bandidas (2006) BDRip от HQ-ViDEO

7 | 5

1.46 ГБ

В этой теме нет новых непрочитанных сообщений. Бандитки / Bandidas (2006) BDRip 1080p | D, P

61 | 12

7.76 ГБ

В этой теме нет новых непрочитанных сообщений. Бандитки / Bandidas (2006) BDRip 1080p

60 | 4

4.36 ГБ

В этой теме нет новых непрочитанных сообщений. Бандитки / Bandidas (2006) BDRip от HQCLUB

91 | 10

1.46 ГБ




Вы не можете начинать темы
Вы не можете отвечать на сообщения
Вы не можете редактировать свои сообщения
Вы не можете удалять свои сообщения
Вы не можете добавлять вложения

Перейти:  
Для Мосгорсуда, Роскомнадзора и рекламодателей: mosgorsud-torrent[собачка]yandex.ru
 Вход
ppkBB3cker v.2 © 2008-2014 @ PPK
[ Time : 0.065s | 17 Queries | GZIP : Off ]

Торрент трекер RUTOR.IN, Не можете зайти на rutor.org? Какой новый адрес рутор? Какое зеркало рутор? Не работает rutor.org и зеркала? Тогда наш торрент специально для вас. Rutor.in неофициальное зеркало rutor. В случае если у Вас заблокирован rutor или вдруг Вы не можете на него зайти, то Вы без труда сможете скачать бесплатно и без рекламы последние новинки кино, игр, сериалов и прочего у нас, на Rutor.in. Не нужно использовать прокси, чтобы зайти на рутор, достаточно воспользоваться нашим ресурсом. Все новые фильмы, игры, сериалы, книги и музыка за 2013 и 2014 годы через торрент бесплатно. Скачивайте фильмы в хорошем качестве, игры для пк, xbox, playstation без регистрации. У нас вы найдете новые Зарубежные сериалы и Русские сериалы 2013, 2014, 2015 годов. Оставайтесь с нами, качайте любимые фильмы, игры, сериалы, книги и музыку.
cron