img image001 image001 image001 image001 image001 image001 image001 image001 image001 image001 image001 image001 image001 image001 image001 image001

Planets Sun Sun Sun
Статистика раздачи
Автор: Nickolas3434 | Размер: 4.99 ГБ | Добавлен: 07 дек 2014
Раздают: 61    Качают: 19
Скачать торрент
Скачать торрент
Описание торрента

СообщениеДобавлено: 07 дек 2014 

Информация о фильме
Название: Сайлент Хилл
Оригинальное название: Silent Hill / Terror en Silent Hill
Год выхода: 2006
Жанр: Ужасы, детектив, приключения
Режиссер: Кристоф Ганс
В ролях: Рада Митчелл, Шон Бин, Лори Холден, Дебора Кара Ангер, Ким Коутс, Таня Аллен, Элис Крайдж, Джоделль Ферланд, Коллин Уильямс, Рон Гэбриел
О фильме:
Молодая мать, отчаявшись найти лекарство от таинственного заболевания своей дочери Шэрон, отказывается отдать ее в психиатрическую лечебницу. Вместе с Шэрон она отправляется в Сайлент Хилл, город, название которого ее дочь постоянно твердит во сне. Несмотря на сопротивление мужа, Роуз убеждена, что найдет там ответы, в которых так нуждается. Но когда они подъезжают к заброшенному городу, на дороге появляется таинственная фигура, Роуз резко тормозит, и машина попадает в аварию… Придя в себя, она обнаруживает, что Шэрон исчезла… В компании упрямой женщины-полицейской из городка неподалеку Роуз отправляется на поиски своего ребенка в Сайлент Хилл, место, непохожее ни на одно другое: город покрыт туманом, его населяют странные, проклятые создания, и время от времени он погружается во Мрак, который буквально меняет все, к чему прикасается… В поисках дочери Роуз узнает об истории Сайлент Хилла, его пуританском прошлом, полном насилия, и причинах проклятия, висящего над городом. Она понимает, ее ребенок - лишь часть большой, ужасающей головоломки…

Страна: Канада, Франция
Студия: Silent Hill DCP Inc., Davis-Films, Konami Corporation
Продолжительность: 02:05:19
Перевод: Дублированный, профессиональный двухголосый, авторский одноголосый
Файл
Кодек: MPEG-4 AVC
Качество: BDRip-AVC
Видео: 3012 Кбит/с, 1024x432
Звук: Русский, английский (AC3, 6 ch, 448 Кбит/с)
Субтитры: Русские, английские
Рип от StarbirS
Релиз группы NovaLan
Aудио#1: Russian: 48 kHz, AC3, 3/2 (L,C,R,l,r) + LFE ch, ~448.00 kbps avg - Дублированный (R5)
Aудио#2: Russian: 48 kHz, AC3, 3/2 (L,C,R,l,r) + LFE ch, ~448.00 kbps avg - Профессиональный двухголосый (Tycoon)
Aудио#3: Russian: 48 kHz, AC3, 3/2 (L,C,R,l,r) + LFE ch, ~448.00 kbps avg - Профессиональный двухголосый (Гланц и Королёва)
Aудио#4: Russian: 48 kHz, AC3, 3/2 (L,C,R,l,r) + LFE ch, ~448.00 kbps avg - Авторский одноголосый (А. Гаврилов)
Aудио#5: Russian: 48 kHz, AC3, 3/2 (L,C,R,l,r) + LFE ch, ~448.00 kbps avg - Авторский одноголосый (Ю. Немахов)
Aудио#6: English: 48 kHz, AC3, 3/2 (L,C,R,l,r) + LFE ch, ~448.00 kbps avg - Оригинал
Субтитры: Русские (R5, Tycoon), английские
x264 [info]: frame I:1308 Avg QP:15.85 size: 73792
x264 [info]: frame P:41628 Avg QP:18.78 size: 28062
x264 [info]: frame B:137349 Avg QP:21.05 size: 11404

Формат : Matroska
Версия формата : Version 4 / Version 2
Размер файла : 4,99 Гбайт
Продолжительность : 2 ч. 5 м.
Общий поток : 5703 Кбит/сек
Название фильма : Silent.Hill.2006.x264.BDRip.(AVC).FRA.NovaLan
Дата кодирования : UTC 2014-12-07 06:10:59
Программа кодирования : mkvmerge v7.3.0 ('Nouages') 64bit built on Oct 22 2014 18:53:34
Библиотека кодирования : libebml v1.3.0 + libmatroska v1.4.1
DURATION : 01:54:35.827000000
NUMBER_OF_FRAMES : 918
NUMBER_OF_BYTES : 26459
_STATISTICS_WRITING_APP : mkvmerge v7.3.0 ('Nouages') 64bit built on Oct 22 2014 18:53:34
_STATISTICS_WRITING_DATE_UTC : 2014-12-07 06:10:59
_STATISTICS_TAGS : BPS DURATION NUMBER_OF_FRAMES NUMBER_OF_BYTES
Видео
Идентификатор : 1
Формат : AVC
Формат/Информация : Advanced Video Codec
Профиль формата : High@L4.1
Параметр CABAC формата : Да
Параметр ReFrames формата : 9 кадров
Идентификатор кодека : V_MPEG4/ISO/AVC
Продолжительность : 2 ч. 5 м.
Битрейт : 3012 Кбит/сек
Ширина : 1024 пикселя
Высота : 432 пикселя
Соотношение сторон : 2,40:1
Режим частоты кадров : Постоянный
Частота кадров : 23,976 кадра/сек
Цветовое пространство : YUV
Субдискретизация насыщенности : 4:2:0
Битовая глубина : 8 бит
Тип развёртки : Прогрессивная
Бит/(Пиксели*Кадры) : 0.284
Размер потока : 2,54 Гбайт (51%)
Заголовок : Silent.Hill.2006.x264.BDRip.(AVC).FRA.by.StarbirS
Библиотека кодирования : x264 core 142 r2431 ac76440
Настройки программы : cabac=1 / ref=9 / deblock=1:-3:-3 / analyse=0x3:0x113 / me=umh / subme=11 / psy=1 / psy_rd=0.95:0.00 / mixed_ref=1 / me_range=48 / chroma_me=1 / trellis=2 / 8x8dct=1 / cqm=0 / deadzone=21,11 / fast_pskip=0 / chroma_qp_offset=-2 / threads=12 / lookahead_threads=4 / sliced_threads=0 / nr=0 / decimate=0 / interlaced=0 / bluray_compat=0 / constrained_intra=0 / bframes=8 / b_pyramid=2 / b_adapt=2 / b_bias=0 / direct=3 / weightb=1 / open_gop=0 / weightp=2 / keyint=240 / keyint_min=23 / scenecut=40 / intra_refresh=0 / rc=2pass / mbtree=0 / bitrate=3012 / ratetol=1.0 / qcomp=0.70 / qpmin=0 / qpmax=69 / qpstep=4 / cplxblur=20.0 / qblur=0.5 / ip_ratio=1.40 / pb_ratio=1.30 / aq=2:0.90
Язык : English
Default : Да
Forced : Нет
DURATION : 02:05:19.399000000
NUMBER_OF_FRAMES : 180285
NUMBER_OF_BYTES : 2830960294
_STATISTICS_WRITING_APP : mkvmerge v7.3.0 ('Nouages') 64bit built on Oct 22 2014 18:53:34
_STATISTICS_WRITING_DATE_UTC : 2014-12-07 06:10:59
_STATISTICS_TAGS : BPS DURATION NUMBER_OF_FRAMES NUMBER_OF_BYTES
Аудио #1
Идентификатор : 2
Формат : AC-3
Формат/Информация : Audio Coding 3
Расширение режима : CM (complete main)
Параметр Endianness формата : Big
Идентификатор кодека : A_AC3
Продолжительность : 2 ч. 5 м.
Вид битрейта : Постоянный
Битрейт : 448 Кбит/сек
Каналы : 6 каналов
Расположение каналов : Front: L C R, Side: L R, LFE
Частота : 48,0 КГц
Битовая глубина : 16 бит
Метод сжатия : С потерями
Размер потока : 402 Мбайт (8%)
Заголовок : Дублированный (R5)
Язык : Russian
Default : Да
Forced : Нет
Аудио #2
Идентификатор : 3
Формат : AC-3
Формат/Информация : Audio Coding 3
Расширение режима : CM (complete main)
Параметр Endianness формата : Big
Идентификатор кодека : A_AC3
Продолжительность : 2 ч. 5 м.
Вид битрейта : Постоянный
Битрейт : 448 Кбит/сек
Каналы : 6 каналов
Расположение каналов : Front: L C R, Side: L R, LFE
Частота : 48,0 КГц
Битовая глубина : 16 бит
Метод сжатия : С потерями
Размер потока : 402 Мбайт (8%)
Заголовок : Профессиональный двухголосый (Tycoon)
Язык : Russian
Default : Нет
Forced : Нет
Аудио #3
Идентификатор : 4
Формат : AC-3
Формат/Информация : Audio Coding 3
Расширение режима : CM (complete main)
Параметр Endianness формата : Big
Идентификатор кодека : A_AC3
Продолжительность : 2 ч. 5 м.
Вид битрейта : Постоянный
Битрейт : 448 Кбит/сек
Каналы : 6 каналов
Расположение каналов : Front: L C R, Side: L R, LFE
Частота : 48,0 КГц
Битовая глубина : 16 бит
Метод сжатия : С потерями
Размер потока : 402 Мбайт (8%)
Заголовок : Профессиональный двухголосый (Гланц и Королёва)
Язык : Russian
Default : Нет
Forced : Нет
Аудио #4
Идентификатор : 5
Формат : AC-3
Формат/Информация : Audio Coding 3
Расширение режима : CM (complete main)
Параметр Endianness формата : Big
Идентификатор кодека : A_AC3
Продолжительность : 2 ч. 5 м.
Вид битрейта : Постоянный
Битрейт : 448 Кбит/сек
Каналы : 6 каналов
Расположение каналов : Front: L C R, Side: L R, LFE
Частота : 48,0 КГц
Битовая глубина : 16 бит
Метод сжатия : С потерями
Размер потока : 402 Мбайт (8%)
Заголовок : Авторский одноголосый (А. Гаврилов)
Язык : Russian
Default : Нет
Forced : Нет
Аудио #5
Идентификатор : 6
Формат : AC-3
Формат/Информация : Audio Coding 3
Расширение режима : CM (complete main)
Параметр Endianness формата : Big
Идентификатор кодека : A_AC3
Продолжительность : 2 ч. 5 м.
Вид битрейта : Постоянный
Битрейт : 448 Кбит/сек
Каналы : 6 каналов
Расположение каналов : Front: L C R, Side: L R, LFE
Частота : 48,0 КГц
Битовая глубина : 16 бит
Метод сжатия : С потерями
Размер потока : 402 Мбайт (8%)
Заголовок : Авторский одноголосый (Ю. Немахов)
Язык : Russian
Default : Нет
Forced : Нет
Аудио #6
Идентификатор : 7
Формат : AC-3
Формат/Информация : Audio Coding 3
Расширение режима : CM (complete main)
Параметр Endianness формата : Big
Идентификатор кодека : A_AC3
Продолжительность : 2 ч. 5 м.
Вид битрейта : Постоянный
Битрейт : 448 Кбит/сек
Каналы : 6 каналов
Расположение каналов : Front: L C R, Side: L R, LFE
Частота : 48,0 КГц
Битовая глубина : 16 бит
Метод сжатия : С потерями
Размер потока : 402 Мбайт (8%)
Язык : English
Default : Нет
Forced : Нет
Текст #1
Идентификатор : 8
Формат : UTF-8
Идентификатор кодека : S_TEXT/UTF8
Идентификатор кодека/Информация : UTF-8 Plain Text
Заголовок : R5
Язык : Russian
Default : Да
Forced : Нет
Текст #2
Идентификатор : 9
Формат : UTF-8
Идентификатор кодека : S_TEXT/UTF8
Идентификатор кодека/Информация : UTF-8 Plain Text
Заголовок : Tycoon
Язык : Russian
Default : Нет
Forced : Нет
Текст #3
Идентификатор : 10
Формат : UTF-8
Идентификатор кодека : S_TEXT/UTF8
Идентификатор кодека/Информация : UTF-8 Plain Text
Язык : English
Default : Нет
Forced : Нет
Меню
00:00:00.000 : en:Ночные страхи
00:03:24.871 : en:Необычная поездка
00:08:38.210 : en:Нет на карте
00:13:08.522 : en:Закрытая дорога
00:17:20.791 : en:Страшные находки
00:23:02.123 : en:"Моё!"
00:25:42.102 : en:Вмешательство полиции
00:33:42.059 : en:Безмолвный город
00:34:36.797 : en:Поиски
00:37:50.699 : en:Не одна
00:43:50.665 : en:Ночные существа
00:47:15.531 : en:"Она здесь"
00:53:45.004 : en:"Все будет в порядке"
00:56:02.513 : en:Сберечь веру
01:01:16.085 : en:Первое сожжение
01:04:20.695 : en:Призраки
01:08:18.139 : en:Тревога
01:11:20.488 : en:Прибежище грешников
01:13:45.839 : en:"Я не могу вам помочь"
01:16:50.139 : en:Откуда нет возврата
01:27:24.031 : en:История Алессы
01:33:52.510 : en:Смерть
01:39:55.725 : en:Вновь обретенная невинность
01:43:02.070 : en:Ужасная судьба
01:47:57.070 : en:Кульминация
01:52:06.070 : en:Материнский инстинкт
01:54:02.570 : en:Возвращение домой
01:57:55.270 : en:Финальные титры



Релиз от:



   Похожие торренты   Торрент   Размер 
В этой теме нет новых непрочитанных сообщений. Сайлент Хилл / Silent Hill (2006) BDRip-AVC

406 | 26

2.18 ГБ

В этой теме нет новых непрочитанных сообщений. Сайлент Хилл / Silent Hill (2006) BDRip 720p | 60 fps | D, P2, A

49 | 26

11.14 ГБ

В этой теме нет новых непрочитанных сообщений. Сайлент Хилл / Silent Hill (2006) BDRip-AVC от HQ-ViDEO

204 | 15

2.89 ГБ

В этой теме нет новых непрочитанных сообщений. Сайлент Хилл / Silent Hill (2006) BDRip 720p от HQ-ViDEO

176 | 23

7.64 ГБ

В этой теме нет новых непрочитанных сообщений. Сайлент Хилл: Дилогия / Silent Hill: Dilogy (2006-2012) BDRip-AVC от HELLYWOOD | Лицензия

179 | 44

5.09 ГБ

В этой теме нет новых непрочитанных сообщений. Сайлент Хилл / Silent Hill (2006) WEB-DLRip-AVC | D | Open Matte

5 | 1

2.18 ГБ

В этой теме нет новых непрочитанных сообщений. Сайлент Хилл / Silent Hill (2006) WEB-DLRip-AVC | D | Open Matte

19 | 0

1.45 ГБ




Вы не можете начинать темы
Вы не можете отвечать на сообщения
Вы не можете редактировать свои сообщения
Вы не можете удалять свои сообщения
Вы не можете добавлять вложения

Перейти:  
 Вход
ppkBB3cker v.2 © 2008-2014 @ PPK
[ Time : 0.034s | 16 Queries | GZIP : Off ]

cron