img image001 image001 image001 image001 image001 image001 image001 image001 image001 image001 image001 image001 image001 image001 image001

Planets Sun Sun Sun
Статистика раздачи
Автор: Nickolas3434 | Размер: 1.46 ГБ | Добавлен: 09 дек 2014
Раздают: 226    Качают: 234
Скачать торрент
Скачать торрент
Описание торрента

СообщениеДобавлено: 09 дек 2014 

Информация о фильме
Название: Смертельная битва 2: Истребление
Оригинальное название: Mortal Kombat: Annihilation
Год выхода: 1997
Жанр: фантастика, фэнтези, боевик, триллер, приключения
Режиссер: Джон Р. Леонетти
В ролях: Робин Шоу, Талиса Сото, Джеймс Римар, Сандра Хесс, Линн ’Красный’ Уильямс, Брайан Томпсон, Рейнер Шёне, Мусетта Вандер, Ирина Пантаева, Дерон Макби
Описание: Император Внеземелья Шао Кан прибывает на Землю, чтобы лично предупредить ее жителей о своих намерениях: уничтожить мир земной, и сделать все это за семь библейских дней. В числе его подручных — роботы, обладающие инстинктами и приемами ниндзя, четырехрукая дева Шива и звероподобный человек Мотарро. Но им противостоят герои Земли во главе с самим лордом Рейденом… Ожидается фейерверк единоборств!

Страна: США
Продолжительность: 01:35:44
Перевод: Профессиональный многоголосый закадровый [CP-Digital]
Файл
Кодек: Xvid
Качество: BDRip
Видео: 704x400 (1.76:1), 23.976 fps, Xvid build 73 ~1720 kbps avg, 0.25 bit/pixel
Звук: 48 kHz, AC3 Dolby Digital, 3/2 (L,C,R,l,r) + LFE ch, ~448.00 kbps avg
Скачать: семпл

General
Complete name : Smertelnaya_bitva_2_1997_BDRip_by_Dalemake.avi
Format : AVI
Format/Info : Audio Video Interleave
File size : 1.46 GiB
Duration : 1h 35mn
Overall bit rate : 2 178 Kbps
Writing application : VirtualDubMod 1.5.10.3 | www.virtualdub-fr.org || (build 2550/release)
Writing library : VirtualDubMod build 2550/release
Video
ID : 0
Format : MPEG-4 Visual
Format profile : Advanced Simple@L5
Format settings, BVOP : 1
Format settings, QPel : No
Format settings, GMC : No warppoints
Format settings, Matrix : Custom
Codec ID : XVID
Codec ID/Hint : XviD
Duration : 1h 35mn
Bit rate : 1 720 Kbps
Width : 704 pixels
Height : 400 pixels
Display aspect ratio : 16:9
Frame rate : 23.976 fps
Color space : YUV
Chroma subsampling : 4:2:0
Bit depth : 8 bits
Scan type : Progressive
Compression mode : Lossy
Bits/(Pixel*Frame) : 0.255
Stream size : 1.15 GiB (79%)
Writing library : XviD 73
Audio
ID : 1
Format : AC-3
Format/Info : Audio Coding 3
Mode extension : CM (complete main)
Format settings, Endianness : Big
Codec ID : 2000
Duration : 1h 35mn
Bit rate mode : Constant
Bit rate : 448 Kbps
Channel(s) : 6 channels
Channel positions : Front: L C R, Side: L R, LFE
Sampling rate : 48.0 KHz
Bit depth : 16 bits
Compression mode : Lossy
Stream size : 307 MiB (21%)
Alignment : Split accross interleaves
Interleave, duration : 42 ms (1.00 video frame)
Interleave, preload duration : 500 ms



   Похожие торренты   Торрент   Размер 
В этой теме нет новых непрочитанных сообщений. Смертельная битва 2: Истребление / Mortal Kombat: Annihilation (1997) BDRip от HELLYWOOD

14 | 7

2.18 ГБ

В этой теме нет новых непрочитанных сообщений. Смертельная битва 2: Истребление / Mortal Kombat: Annihilation (1997) BDRip от HQ-ViDEO

25 | 6

2.3 ГБ

В этой теме нет новых непрочитанных сообщений. Смертельная битва 2: Истребление / Mortal Kombat: Annihilation (1997) BDRip от HQCLUB

160 | 28

2.18 ГБ

В этой теме нет новых непрочитанных сообщений. Смертельная битва 2: Истребление / Mortal Kombat: Annihilation (1997) BDRip 1080p

161 | 14

5.76 ГБ

В этой теме нет новых непрочитанных сообщений. Смертельная битва 2: Истребление / Mortal Kombat: Annihilation (1997) BDRip 720p от NNNB | 60 fps | P, P2, A

95 | 2

5.96 ГБ

В этой теме нет новых непрочитанных сообщений. Смертельная битва 2: Истребление / Mortal Kombat: Annihilation (1997) 720p BDRip от HQCLUB

13 | 6

7.46 ГБ

В этой теме нет новых непрочитанных сообщений. OST - Смертельная битва 2: Истребление / Mortal Kombat: Annihilation (1997) MP3

33 | 7

86.53 МБ




Вы не можете начинать темы
Вы не можете отвечать на сообщения
Вы не можете редактировать свои сообщения
Вы не можете удалять свои сообщения
Вы не можете добавлять вложения

Перейти:  
Для Мосгорсуда, Роскомнадзора и рекламодателей: mosgorsud-torrent[собачка]yandex.ru
 Вход
ppkBB3cker v.2 © 2008-2014 @ PPK
[ Time : 0.064s | 18 Queries | GZIP : Off ]

cron