img image001 image001 image001 image001 image001 image001 image001 image001 image001 image001 image001 image001 image001 image001 image001 image001

Planets Sun Sun Sun
Статистика раздачи
Автор: Nickolas3434 | Размер: 1.46 ГБ | Добавлен: 07 янв 2015
Раздают: 93    Качают: 24
Скачать торрент
Скачать торрент
Описание торрента

СообщениеДобавлено: 07 янв 2015 

Система безопасности / Fail-Safe

Страна: США
Жанр: триллер, драма, приключения
Год выпуска: 1964
Продолжительность: 01:52:04
Перевод: Профессиональный (многоголосый закадровый) ТРК "Петербург - 5-й канал"
Cубтитры: нет
Режиссер: Сидни Люмет / Sidney Lumet
В ролях: Дэн О’Херлихи, Уолтер Мэттау, Фрэнк Овертон, Эд Биннс, Фриц Уивер, Генри Фонда, Ларри Хэгмэн, Уильям Хансен, Расселл Харди, Расселл Коллинз
Описание: Компьютер военного ведомства США дает сбой, и пилоты ядерных бомбардировщиков получают команду атаковать Москву. Теперь экипажи самолетов не имеют права выходить в эфир, их единственная задача — выполнить миссию любой ценой. У президента США есть несколько часов, чтобы предотвратить надвигающуюся катастрофу.
Доп. информация:


За дорожку с переводом спасибо StudioRAK
Качество видео: WEB-DLRip
Формат видео: AVI
Видео: XviD, 688x384, 23,976fps, 1667kbps, 0.263bit/pixel
Аудио: AC3, 48000Hz, 2ch, 192kbps
Общее
Полное имя : T:Fail-Safe.avi
Формат : AVI
Формат/Информация : Audio Video Interleave
Размер файла : 1,46 Гбайт
Продолжительность : 1 ч. 52 м.
Общий поток : 1868 Кбит/сек
Программа кодирования : VirtualDubMod 1.5.10.2 (build 2540/release)
Библиотека кодирования : VirtualDubMod build 2540/release
Видео
Идентификатор : 0
Формат : MPEG-4 Visual
Профиль формата : Advanced Simple@L5
Параметр BVOP формата : 2
Параметр QPel формата : Нет
Параметр GMC формата : Без точки перехода
Параметр матрицы формата : Выборочная
Идентификатор кодека : XVID
Идентификатор кодека/Подсказка : XviD
Продолжительность : 1 ч. 52 м.
Битрейт : 1667 Кбит/сек
Ширина : 688 пикселей
Высота : 384 пикселя
Соотношение сторон : 16:9
Частота кадров : 23,976 кадра/сек
Цветовое пространство : YUV
Субдискретизация насыщенности : 4:2:0
Битовая глубина : 8 бит
Тип развёртки : Прогрессивная
Метод сжатия : С потерями
Бит/(Пиксели*Кадры) : 0.263
Размер потока : 1,31 Гбайт (89%)
Библиотека кодирования : XviD 65
Аудио
Идентификатор : 1
Формат : AC-3
Формат/Информация : Audio Coding 3
Расширение режима : CM (complete main)
Параметр Endianness формата : Big
Идентификатор кодека : 2000
Продолжительность : 1 ч. 52 м.
Вид битрейта : Постоянный
Битрейт : 192 Кбит/сек
Каналы : 2 канала
Расположение каналов : Front: L R
Частота : 48,0 КГц
Битовая глубина : 16 бит
Метод сжатия : С потерями
Размер потока : 154 Мбайт (10%)
Выравнивание : Разделение по промежуткам
Продолжительность промежутка : 42 мс. (1,00 видеокадр)
Время предзагрузки промежутка : 500 мс.



   Похожие торренты   Торрент   Размер 
В этой теме нет новых непрочитанных сообщений. Система безопасности / Fail-Safe (1964) HDRip от Koenig | P

6 | 0

1.45 ГБ

В этой теме нет новых непрочитанных сообщений. Enabler - Fail to Feel Safe (2015) MP3

16 | 5

91.97 МБ

В этой теме нет новых непрочитанных сообщений. Взрыв / Fail Safe (2000) DVDRip | P2

72 | 35

740.32 МБ

В этой теме нет новых непрочитанных сообщений. Лицом к событию. Как организована система безопасности Олимпиады? [Радио Свобода] [10.03] (2014) WEBRip

44 | 2

356.83 МБ

В этой теме нет новых непрочитанных сообщений. Закрытая система / Замкнутая система / Uklad zamkniety / The Closed Circuit (2013) HDRip от CINEMANIA | L1

1088 | 45

1.46 ГБ

В этой теме нет новых непрочитанных сообщений. Закрытая система / Замкнутая система / Uklad zamkniety / The Closed Circuit (2013) BDRip 1080p от CINEMANIA | L1

76 | 14

12.37 ГБ

В этой теме нет новых непрочитанных сообщений. Закрытая система / Замкнутая система / Uklad zamkniety / The Closed Circuit (2013) BDRip 720p от CINEMANIA | L1

412 | 61

6.32 ГБ




Вы не можете начинать темы
Вы не можете отвечать на сообщения
Вы не можете редактировать свои сообщения
Вы не можете удалять свои сообщения
Вы не можете добавлять вложения

Перейти:  
 Вход
ppkBB3cker v.2 © 2008-2014 @ PPK
[ Time : 0.050s | 19 Queries | GZIP : Off ]

cron