img image001 image001 image001 image001 image001 image001 image001 image001 image001 image001 image001 image001 image001 image001 image001

Planets Sun Sun Sun
Статистика раздачи
Автор: Nickolas3434 | Размер: 12.82 ГБ | Добавлен: 08 янв 2015
Раздают: 39    Качают: 13
Скачать торрент
Скачать торрент
Описание торрента

СообщениеДобавлено: 08 янв 2015 

Информация о фильме
Название: Жемчужина Нила
Оригинальное название: The Jewel Of The Nile
Год выхода: 1985
Страна: США
Жанр: Боевик, комедия, приключения
Продолжительность: 01:45:55



Перевод: Профессиональный (многоголосый, закадровый) x 4
Перевод: Профессиональный (двухголосый, закадровый) x 3
Перевод: Авторский (одноголосый, закадровый)
Оригинальная звуковая дорожка: Английский
Субтитры: Русские (3 варианта), украинские, английские
Режиссер: Льюис Тиг
В ролях: Майкл Дуглас, Кэтлин Тернер, Дэнни Де Вито, Спирос Фокас, Эвнер Айзенберг, Пол Дэвид Маджид
Описание: Герои предыдущей части Джэк и Джоан живут спокойной, размеренной жизнью богатых бездельников. У них есть все, что могут позволить деньги: яхта, виллы, прислуга. Но им скучно. Скучно друг с другом, и этим обществом. Чтобы развлечь себя, Джоан принимает приглашение арабского шейха посетить его восточную резиденцию. Но сказка обернулась кошмаром: арабский красавец похищает Джоан и требует выкуп — «жемчужину». Джэк, заручившись поддержкой своего нового партнера Ральфа, принимает непростое решение — спасти Джоан. Но есть одно осложнение, Джэку хочет отомстить старый напарник.



Качество: BDRip 1080p
Формат: MKV
Видео кодек: H264
Аудио кодек: AC3
Видео: MPEG4 Video (H264), 1920x816, 23.976fps, 14.0 Mbps
Аудио #01: Русский: Dolby AC3, 48000Hz, 6ch, 448 kbps - Многоголосый, R5
Аудио #02: Русский: Dolby AC3, 48000Hz, 2ch, 192 kbps - Многоголосый, Премьер Видео Фильм
Аудио #03: Русский: Dolby AC3, 48000Hz, 6ch, 448 kbps - Многоголосый, Киномания
Аудио #04: Русский: Dolby AC3, 48000Hz, 2ch, 224 kbps - Многоголосый, Лазер Видео
Аудио #05: Русский: Dolby AC3, 48000Hz, 2ch, 224 kbps - Двухголосый, Позитив-Мультимедиа
Аудио #06: Русский: Dolby AC3, 48000Hz, 6ch, 448 kbps - Одноголосый, А.Гаврилов
Аудио #07: Украинский: Dolby AC3, 48000Hz, 6ch, 448 kbps - Двухголосый, 1+1
Аудио #08: Украинский: Dolby AC3, 48000Hz, 6ch, 448 kbps - Двухголосый, Новый канал
Аудио #09: Английский: Dolby AC3, 48000Hz, 6ch, 448 kbps
Формат субтитров: softsub (SRT)

Сэмпл
General
Unique ID : 188399554193810494623211664654767289522 (0x8DBC6F2DD5417FBBA66F95F89604F4B2)
Complete name : F:DVDRip1985 Жемчужина Нила1985 Жемчужина Нила.mkv
Format : Matroska
Format version : Version 4 / Version 2
File size : 12.8 GiB
Duration : 1h 45mn
Overall bit rate : 17.3 Mbps
Encoded date : UTC 2015-01-07 10:34:58
Writing application : mkvmerge v7.1.0 ('Good Love') 32bit built on Jul 27 2014 12:59:18
Writing library : libebml v1.3.0 + libmatroska v1.4.1
DURATION : 01:45:55.456000000
NUMBER_OF_FRAMES : 198608
NUMBER_OF_BYTES : 355905536
_STATISTICS_WRITING_APP : mkvmerge v7.1.0 ('Good Love') 32bit built on Jul 27 2014 12:59:18
_STATISTICS_WRITING_DATE_UTC : 2015-01-07 10:34:58
_STATISTICS_TAGS : BPS DURATION NUMBER_OF_FRAMES NUMBER_OF_BYTES
Video
ID : 1
Format : AVC
Format/Info : Advanced Video Codec
Format profile : High@L4.1
Format settings, CABAC : Yes
Format settings, ReFrames : 4 frames
Codec ID : V_MPEG4/ISO/AVC
Duration : 1h 45mn
Bit rate : 14.0 Mbps
Width : 1 920 pixels
Height : 816 pixels
Display aspect ratio : 2.35:1
Frame rate mode : Constant
Frame rate : 23.976 fps
Color space : YUV
Chroma subsampling : 4:2:0
Bit depth : 8 bits
Scan type : Progressive
Bits/(Pixel*Frame) : 0.373
Stream size : 10.1 GiB (79%)
Title : 1985 Жемчужина Нила / doctor0107
Writing library : x264 core 125 r2208 d9d2288
Encoding settings : cabac=1 / ref=5 / deblock=1:-1:-1 / analyse=0x3:0x133 / me=umh / subme=11 / psy=1 / psy_rd=1.25:0.30 / mixed_ref=1 / me_range=32 / chroma_me=1 / trellis=2 / 8x8dct=1 / cqm=0 / deadzone=21,11 / fast_pskip=0 / chroma_qp_offset=-4 / threads=12 / lookahead_threads=2 / sliced_threads=0 / nr=0 / decimate=1 / interlaced=0 / bluray_compat=0 / constrained_intra=0 / bframes=12 / b_pyramid=1 / b_adapt=2 / b_bias=0 / direct=3 / weightb=1 / open_gop=0 / weightp=2 / keyint=250 / keyint_min=23 / scenecut=40 / intra_refresh=0 / rc_lookahead=50 / rc=2pass / mbtree=1 / bitrate=14000 / ratetol=1.0 / qcomp=0.60 / qpmin=0 / qpmax=69 / qpstep=4 / cplxblur=20.0 / qblur=0.5 / ip_ratio=1.40 / aq=1:1.00
Language : English
Default : Yes
Forced : No
Audio #1
ID : 2
Format : AC-3
Format/Info : Audio Coding 3
Mode extension : CM (complete main)
Format settings, Endianness : Big
Codec ID : A_AC3
Duration : 1h 45mn
Bit rate mode : Constant
Bit rate : 448 Kbps
Channel(s) : 6 channels
Channel positions : Front: L C R, Side: L R, LFE
Sampling rate : 48.0 KHz
Bit depth : 16 bits
Compression mode : Lossy
Stream size : 339 MiB (3%)
Title : R5
Language : Russian
Default : Yes
Forced : No
Audio #2
ID : 3
Format : AC-3
Format/Info : Audio Coding 3
Mode extension : CM (complete main)
Format settings, Endianness : Big
Codec ID : A_AC3
Duration : 1h 45mn
Bit rate mode : Constant
Bit rate : 192 Kbps
Channel(s) : 2 channels
Channel positions : Front: L R
Sampling rate : 48.0 KHz
Bit depth : 16 bits
Compression mode : Lossy
Stream size : 145 MiB (1%)
Title : Многоголосый, Премьер Видео Фильм
Language : Russian
Default : No
Forced : No
Audio #3
ID : 4
Format : AC-3
Format/Info : Audio Coding 3
Mode extension : CM (complete main)
Format settings, Endianness : Big
Codec ID : A_AC3
Duration : 1h 45mn
Bit rate mode : Constant
Bit rate : 448 Kbps
Channel(s) : 6 channels
Channel positions : Front: L C R, Side: L R, LFE
Sampling rate : 48.0 KHz
Bit depth : 16 bits
Compression mode : Lossy
Stream size : 339 MiB (3%)
Title : Многоголосый, Киномания
Language : Russian
Default : No
Forced : No
Audio #4
ID : 5
Format : AC-3
Format/Info : Audio Coding 3
Mode extension : CM (complete main)
Format settings, Endianness : Big
Codec ID : A_AC3
Duration : 1h 45mn
Bit rate mode : Constant
Bit rate : 224 Kbps
Channel(s) : 2 channels
Channel positions : Front: L R
Sampling rate : 48.0 KHz
Bit depth : 16 bits
Compression mode : Lossy
Stream size : 170 MiB (1%)
Title : Многоголосый, Лазер Видео
Language : Russian
Default : No
Forced : No
Audio #5
ID : 6
Format : AC-3
Format/Info : Audio Coding 3
Mode extension : CM (complete main)
Format settings, Endianness : Big
Codec ID : A_AC3
Duration : 1h 45mn
Bit rate mode : Constant
Bit rate : 224 Kbps
Channel(s) : 2 channels
Channel positions : Front: L R
Sampling rate : 48.0 KHz
Bit depth : 16 bits
Compression mode : Lossy
Stream size : 170 MiB (1%)
Title : Двухголосый, Позитив-Мультимедиа
Language : Russian
Default : No
Forced : No
Audio #6
ID : 7
Format : AC-3
Format/Info : Audio Coding 3
Mode extension : CM (complete main)
Format settings, Endianness : Big
Codec ID : A_AC3
Duration : 1h 45mn
Bit rate mode : Constant
Bit rate : 448 Kbps
Channel(s) : 6 channels
Channel positions : Front: L C R, Side: L R, LFE
Sampling rate : 48.0 KHz
Bit depth : 16 bits
Compression mode : Lossy
Stream size : 339 MiB (3%)
Title : Одноголосый, А.Гаврилов
Language : Russian
Default : No
Forced : No
Audio #7
ID : 8
Format : AC-3
Format/Info : Audio Coding 3
Mode extension : CM (complete main)
Format settings, Endianness : Big
Codec ID : A_AC3
Duration : 1h 45mn
Bit rate mode : Constant
Bit rate : 448 Kbps
Channel(s) : 6 channels
Channel positions : Front: L C R, Side: L R, LFE
Sampling rate : 48.0 KHz
Bit depth : 16 bits
Compression mode : Lossy
Stream size : 339 MiB (3%)
Title : Двухголосый, 1+1
Language : Ukrainian
Default : No
Forced : No
Audio #8
ID : 9
Format : AC-3
Format/Info : Audio Coding 3
Mode extension : CM (complete main)
Format settings, Endianness : Big
Codec ID : A_AC3
Duration : 1h 45mn
Bit rate mode : Constant
Bit rate : 448 Kbps
Channel(s) : 6 channels
Channel positions : Front: L C R, Side: L R, LFE
Sampling rate : 48.0 KHz
Bit depth : 16 bits
Compression mode : Lossy
Stream size : 339 MiB (3%)
Title : Двухголосый, Новый канал
Language : Ukrainian
Default : No
Forced : No
Audio #9
ID : 10
Format : AC-3
Format/Info : Audio Coding 3
Mode extension : CM (complete main)
Format settings, Endianness : Big
Codec ID : A_AC3
Duration : 1h 45mn
Bit rate mode : Constant
Bit rate : 448 Kbps
Channel(s) : 6 channels
Channel positions : Front: L C R, Side: L R, LFE
Sampling rate : 48.0 KHz
Bit depth : 16 bits
Compression mode : Lossy
Stream size : 339 MiB (3%)
Language : English
Default : No
Forced : No
Text #1
ID : 11
Format : UTF-8
Codec ID : S_TEXT/UTF8
Codec ID/Info : UTF-8 Plain Text
Title : R5
Language : Russian
Default : No
Forced : No
Text #2
ID : 12
Format : UTF-8
Codec ID : S_TEXT/UTF8
Codec ID/Info : UTF-8 Plain Text
Title : Киномания
Language : Russian
Default : No
Forced : No
Text #3
ID : 13
Format : UTF-8
Codec ID : S_TEXT/UTF8
Codec ID/Info : UTF-8 Plain Text
Title : vinalord
Language : Russian
Default : No
Forced : No
Text #4
ID : 14
Format : UTF-8
Codec ID : S_TEXT/UTF8
Codec ID/Info : UTF-8 Plain Text
Title : R5
Language : Ukrainian
Default : No
Forced : No
Text #5
ID : 15
Format : UTF-8
Codec ID : S_TEXT/UTF8
Codec ID/Info : UTF-8 Plain Text
Language : English
Default : No
Forced : No
Menu
00:00:00.000 : en:Chapter 01
00:03:45.433 : en:Chapter 02
00:08:13.659 : en:Chapter 03
00:11:28.521 : en:Chapter 04
00:16:02.544 : en:Chapter 05
00:19:47.394 : en:Chapter 06
00:23:47.759 : en:Chapter 07
00:24:49.279 : en:Chapter 08
00:26:57.907 : en:Chapter 09
00:30:26.866 : en:Chapter 10
00:37:09.352 : en:Chapter 11
00:44:07.144 : en:Chapter 12
00:52:43.994 : en:Chapter 13
00:57:07.757 : en:Chapter 14
01:02:13.563 : en:Chapter 15
01:08:39.782 : en:Chapter 16
01:10:45.157 : en:Chapter 17
01:13:48.090 : en:Chapter 18
01:16:12.401 : en:Chapter 19
01:23:52.736 : en:Chapter 20
01:26:17.422 : en:Chapter 21
01:29:53.554 : en:Chapter 22
01:34:08.684 : en:Chapter 23
01:40:50.335 : en:Chapter 24
01:45:48.091 : en:Chapter 25





   Похожие торренты   Торрент   Размер 
В этой теме нет новых непрочитанных сообщений. Жемчужина Нила / The Jewel of the Nile (1985) BDRip 1080p

32 | 21

4.38 ГБ

В этой теме нет новых непрочитанных сообщений. Жемчужина Нила / The Jewel of the Nile (1985) BDRip 1080p от BT-Club

2 | 23

8.29 ГБ

В этой теме нет новых непрочитанных сообщений. Жемчужина Нила / The Jewel of the Nile (1985) BDRip от HQ-ViDEO

69 | 14

1.6 ГБ

В этой теме нет новых непрочитанных сообщений. Жемчужина Нила / The Jewel of the Nile (1985) BDRip от HQCLUB

125 | 10

2.18 ГБ

В этой теме нет новых непрочитанных сообщений. Роман с камнем + Жемчужина Нила / Romancing the Stone + The Jewel of the Nile (1984-1985) BDRip 1080p от NoLimits-Team

21 | 7

15.89 ГБ

В этой теме нет новых непрочитанных сообщений. Жемчужина Нила / The Jewel Of The Nile (1985) DVD9

2 | 3

6.86 ГБ

В этой теме нет новых непрочитанных сообщений. Жемчужина Нила / The Jewel of the Nile (1985) HDRip

12 | 3

2.19 ГБ




Вы не можете начинать темы
Вы не можете отвечать на сообщения
Вы не можете редактировать свои сообщения
Вы не можете удалять свои сообщения
Вы не можете добавлять вложения

Перейти:  
Для Мосгорсуда, Роскомнадзора и рекламодателей: mosgorsud-torrent[собачка]yandex.ru
 Вход
ppkBB3cker v.2 © 2008-2014 @ PPK
[ Time : 0.075s | 17 Queries | GZIP : Off ]

Торрент трекер RUTOR.IN, Не можете зайти на rutor.org? Какой новый адрес рутор? Какое зеркало рутор? Не работает rutor.org и зеркала? Тогда наш торрент специально для вас. Rutor.in неофициальное зеркало rutor. В случае если у Вас заблокирован rutor или вдруг Вы не можете на него зайти, то Вы без труда сможете скачать бесплатно и без рекламы последние новинки кино, игр, сериалов и прочего у нас, на Rutor.in. Не нужно использовать прокси, чтобы зайти на рутор, достаточно воспользоваться нашим ресурсом. Все новые фильмы, игры, сериалы, книги и музыка за 2013 и 2014 годы через торрент бесплатно. Скачивайте фильмы в хорошем качестве, игры для пк, xbox, playstation без регистрации. У нас вы найдете новые Зарубежные сериалы и Русские сериалы 2013, 2014, 2015 годов. Оставайтесь с нами, качайте любимые фильмы, игры, сериалы, книги и музыку.
cron