img image001 image001 image001 image001 image001 image001 image001 image001 image001 image001 image001 image001 image001 image001 image001 image001

Planets Sun Sun Sun
Статистика раздачи
Автор: Nickolas3434 | Размер: 7.1 ГБ | Добавлен: 15 янв 2015
Раздают: 211    Качают: 33
Скачать торрент
Скачать торрент
Описание торрента

СообщениеДобавлено: 15 янв 2015 

Информация о фильме
Название: Близнецы
Оригинальное название: The Skeleton Twins
Год выпуска: 2014
Жанр: Драма, комедия
Режиссер: Крэйг Джонсон
В ролях: Кристен Уиг, Билл Хейдер, Люк Уилсон, Тай Буррелл, Бойд Холбрук, Кэтлин Роуз Перкинс, Джоанна Глисон, Йен Хайланд, Дженнифер ЛаФлер, Женевьева Адамс
О фильме: Близнецы Мэгги и Майло не общались друг с другом сто лет, но, так уж случилось, что в один и тот же день и час они ухитрились чудом избежать смерти. Именно в минуту опасности оба пообещали изменить в жизни всё, что пошло не так, как им хотелось. Для Мэгги это пересмотр собственного брака с Лэнсом, а для гея Майло — попытка восстановить отношения со своим бывшим учителем Ричем, о чем они оба, в общем-то, стараются помалкивать. А потом брат и сестра осознают, что ключ к нормальной жизни для них — это еще и восстановление отношений друг с другом.

Выпущено: США / Duplass Brothers Productions, Venture Forth
Продолжительность: 01:32:57
Перевод: Любительский (одноголосый, закадровый) - Lord32x
Файл
Качество: BDRip 1080p
Формат: MKV
Видео: MPEG4/AVC, 9213 Кбит/сек, 1920х800 (2.40:1), 23.976 кадра/сек
Аудио 1: AC3, 6 каналов, 448 Кбит/сек | Русский
Аудио 2: AC3, 6 каналов, 640 Кбит/сек | Французский
Аудио 3: AC3, 6 каналов, 640 Кбит/сек | Английский
Субтитры: Русские, английские (Full, SDH), французские
Навигация по главам: Есть
Общее
Уникальный идентификатор : 244881886884231047991367957033846275261 (0xB83A892F5B0778D19FC875E2C97F7CBD)
Полное имя : The Skeleton Twins. (2014) BDRip 1080p.mkv
Формат : Matroska
Версия формата : Version 2
Размер файла : 7,10 Гбайт
Продолжительность : 1 ч. 32 м.
Общий поток : 10,9 Мбит/сек
Название фильма : The Skeleton Twins. 2014
Дата кодирования : UTC 2015-01-12 19:50:29
Программа кодирования : mkvmerge v5.8.0 ('No Sleep / Pillow') built on Sep 2 2012 15:37:04
Библиотека кодирования : libebml v1.2.3 + libmatroska v1.3.0
Видео
Идентификатор : 1
Формат : AVC
Формат/Информация : Advanced Video Codec
Профиль формата : High@L4.1
Параметр CABAC формата : Да
Параметр ReFrames формата : 5 кадров
Идентификатор кодека : V_MPEG4/ISO/AVC
Продолжительность : 1 ч. 32 м.
Битрейт : 9213 Кбит/сек
Ширина : 1920 пикселей
Высота : 800 пикселей
Соотношение сторон : 2,40:1
Режим частоты кадров : Постоянный
Частота кадров : 23,976 кадра/сек
Цветовое пространство : YUV
Субдискретизация насыщенности : 4:2:0
Битовая глубина : 8 бит
Тип развёртки : Прогрессивная
Бит/(Пиксели*Кадры) : 0.250
Размер потока : 5,84 Гбайт (82%)
Заголовок : LOST
Библиотека кодирования : x264 core 144 r2525 40bb568
Настройки программы : cabac=1 / ref=5 / deblock=1:0:0 / analyse=0x3:0x113 / me=umh / subme=8 / psy=1 / psy_rd=1.00:0.00 / mixed_ref=1 / me_range=16 / chroma_me=1 / trellis=1 / 8x8dct=1 / cqm=0 / deadzone=21,11 / fast_pskip=1 / chroma_qp_offset=-2 / threads=18 / lookahead_threads=3 / sliced_threads=0 / nr=0 / decimate=1 / interlaced=0 / bluray_compat=0 / constrained_intra=0 / bframes=3 / b_pyramid=2 / b_adapt=2 / b_bias=0 / direct=3 / weightb=1 / open_gop=0 / weightp=2 / keyint=240 / keyint_min=24 / scenecut=40 / intra_refresh=0 / rc_lookahead=50 / rc=2pass / mbtree=1 / bitrate=9213 / ratetol=1.0 / qcomp=0.60 / qpmin=0 / qpmax=69 / qpstep=4 / cplxblur=20.0 / qblur=0.5 / ip_ratio=1.40 / aq=1:1.00
Язык : English
Default : Да
Forced : Нет
Аудио #1
Идентификатор : 2
Формат : AC-3
Формат/Информация : Audio Coding 3
Расширение режима : CM (complete main)
Параметр Endianness формата : Big
Идентификатор кодека : A_AC3
Продолжительность : 1 ч. 32 м.
Вид битрейта : Постоянный
Битрейт : 448 Кбит/сек
Каналы : 6 каналов
Расположение каналов : Front: L C R, Side: L R, LFE
Частота : 48,0 КГц
Битовая глубина : 16 бит
Метод сжатия : С потерями
Размер потока : 298 Мбайт (4%)
Заголовок : L1 | Lord32x
Язык : Russian
Default : Да
Forced : Нет
Аудио #2
Идентификатор : 3
Формат : AC-3
Формат/Информация : Audio Coding 3
Расширение режима : CM (complete main)
Параметр Endianness формата : Big
Идентификатор кодека : A_AC3
Продолжительность : 1 ч. 32 м.
Вид битрейта : Постоянный
Битрейт : 640 Кбит/сек
Каналы : 6 каналов
Расположение каналов : Front: L C R, Side: L R, LFE
Частота : 48,0 КГц
Битовая глубина : 16 бит
Метод сжатия : С потерями
Размер потока : 426 Мбайт (6%)
Заголовок : D | License
Язык : French
Default : Нет
Forced : Нет
Аудио #3
Идентификатор : 4
Формат : AC-3
Формат/Информация : Audio Coding 3
Расширение режима : CM (complete main)
Параметр Endianness формата : Big
Идентификатор кодека : A_AC3
Продолжительность : 1 ч. 32 м.
Вид битрейта : Постоянный
Битрейт : 640 Кбит/сек
Каналы : 6 каналов
Расположение каналов : Front: L C R, Side: L R, LFE
Частота : 48,0 КГц
Битовая глубина : 16 бит
Метод сжатия : С потерями
Размер потока : 426 Мбайт (6%)
Заголовок : Original
Язык : English
Default : Нет
Forced : Нет
Текст #1
Идентификатор : 5
Формат : UTF-8
Идентификатор кодека : S_TEXT/UTF8
Идентификатор кодека/Информация : UTF-8 Plain Text
Заголовок : Full
Язык : Russian
Default : Нет
Forced : Нет
Текст #2
Идентификатор : 6
Формат : UTF-8
Идентификатор кодека : S_TEXT/UTF8
Идентификатор кодека/Информация : UTF-8 Plain Text
Заголовок : Full
Язык : English
Default : Нет
Forced : Нет
Текст #3
Идентификатор : 7
Формат : UTF-8
Идентификатор кодека : S_TEXT/UTF8
Идентификатор кодека/Информация : UTF-8 Plain Text
Заголовок : SDH
Язык : English
Default : Нет
Forced : Нет
Текст #4
Идентификатор : 8
Формат : UTF-8
Идентификатор кодека : S_TEXT/UTF8
Идентификатор кодека/Информация : UTF-8 Plain Text
Заголовок : Full
Язык : French
Default : Нет
Forced : Нет
Меню
00:00:00.000 : en:00:00:00.000
00:08:34.347 : en:00:08:34.347
00:14:10.016 : en:00:14:10.016
00:18:16.595 : en:00:18:16.595
00:28:38.091 : en:00:28:38.091
00:32:58.643 : en:00:32:58.643
00:37:26.453 : en:00:37:26.453
00:44:28.833 : en:00:44:28.833
00:48:31.200 : en:00:48:31.200
00:55:54.101 : en:00:55:54.101
00:59:15.510 : en:00:59:15.510
01:04:04.382 : en:01:04:04.382
01:07:41.724 : en:01:07:41.724
01:11:26.407 : en:01:11:26.407
01:17:58.257 : en:01:17:58.257
01:26:32.437 : en:01:26:32.437


Релиз от:



   Похожие торренты   Торрент   Размер 
В этой теме нет новых непрочитанных сообщений. Близнецы / The Skeleton Twins (2014) BDRip-AVC от HELLYWOOD | iTunes

57 | 5

2.18 ГБ

В этой теме нет новых непрочитанных сообщений. Близнецы / The Skeleton Twins (2014) BDRip 720p | iTunes

90 | 8

5.82 ГБ

В этой теме нет новых непрочитанных сообщений. Близнецы / The Skeleton Twins (2014) HDRip | iTunes

475 | 21

1.37 ГБ

В этой теме нет новых непрочитанных сообщений. Близнецы / The Skeleton Twins (2014) HDRip от Scarabey | iTunes

51 | 8

743.86 МБ

В этой теме нет новых непрочитанных сообщений. Близнецы / The Skeleton Twins (2014) HDRip от Scarabey | iTunes

92 | 21

1.42 ГБ

В этой теме нет новых непрочитанных сообщений. Близнецы / Twins (1988) BDRip 1080p | Р, P2, A

6 | 1

10.24 ГБ

В этой теме нет новых непрочитанных сообщений. Близнецы / Twins (1988) HDTVRip от New-Team | Р

163 | 16

1.46 ГБ




Вы не можете начинать темы
Вы не можете отвечать на сообщения
Вы не можете редактировать свои сообщения
Вы не можете удалять свои сообщения
Вы не можете добавлять вложения

Перейти:  
 Вход
ppkBB3cker v.2 © 2008-2014 @ PPK
[ Time : 0.024s | 16 Queries | GZIP : Off ]

cron