img image001 image001 image001 image001 image001 image001 image001 image001 image001 image001 image001 image001 image001 image001 image001 image001

Planets Sun Sun Sun
Статистика раздачи
Автор: Nickolas3434 | Размер: 9.51 ГБ | Добавлен: 19 янв 2015
Раздают: 24    Качают: 17
Скачать торрент
Скачать торрент
Описание торрента

СообщениеДобавлено: 19 янв 2015 

Информация о фильме
Название: Армагеддон
Оригинальное название: Armageddon
Год выхода: 1998
Жанр: фантастика, боевик, триллер, приключения
Режиссер: Майкл Бэй
В ролях: Брюс Уиллис, Бен Аффлек, Лив Тайлер, Уилл Пэттон, Билли Боб Торнтон, Стив Бушеми, Уильям Фихтнер, Оуэн Уилсон, Майкл Кларк Дункан, Петер Стормаре
О фильме:
Тень гигантского астероида легла на Землю. До рокового столкновения остаются считанные дни. Наступает Армагеддон, трагический финал мировой истории. Чтобы предотвратить катастрофу, необходимо чудо — или совместные усилия лучших из лучших вместе с технологической мощью всего созданного человеком. Сможет ли горстка людей противостоять вселенской стихии?..


детям до 13 лет просмотр не желателен
Страна: США
Студия: Jerry Bruckheimer Films, Touchstone Pictures, Valhalla Motion Pictures
Продолжительность: 147 мин. / 02:27
Перевод 1: профессиональный (многоголосый, закадровый)
Перевод 2: авторский (одноголосый, закадровый)
Бонус-Диск: Удаленные сцены; Спецэффекты; Расскадровка "Армагеддона"; Художественный дизайн; Музыкальный видеоклип
Файл
Кодек: MPEG2
Качество: DVD9+DVD5
Видео: PAL 16:9 (720x576@1024x576) VBR 5352 Kbps, 25.000 fps
Аудио 1: Dolby AC3, 6 ch, 48.0 KHz, 384 Кbps (английский)
Аудио 2: Dolby AC3, 6 ch, 48.0 KHz, 384 Кbps (русский)
Аудио 3: Dolby AC3, 6 ch, 48.0 KHz, 384 Кbps (Ю.Сербин)
Аудио 4: Dolby AC3, 2 ch, 48.0 KHz, 192 Kbps (комментарии режиссера)
Аудио 5: Dolby AC3, 2 ch, 48.0 KHz, 192 Kbps (комментарии оператора)
Субтитры: русские, английские
Title: ДИСК_1
Size: 7.16 Gb ( 7 505 940,00 KBytes ) - DVD-9
Enabled regions: 1, 2, 3, 4, 5, 6, 8
VTS_01 :
Play Length: 02:27:10
Video: PAL 16:9 (720x576) VBR, Auto Letterboxed
Audio:
Russian (Dolby AC3, 6 ch)
Russian (Dolby AC3, 6 ch)
English (Dolby AC3, 6 ch)
English (Dolby AC3, 2 ch)
English (Dolby AC3, 2 ch)
Subtitles:
Russian
English
VTS_02 :
Play Length: 00:00:12
Video: PAL 4:3 (720x576) VBR
Audio:
English (Dolby AC3, 6 ch)

General
Complete name : D:АрмагеддонДИСК_1VIDEO_TSVTS_01_1.VOB
Format : MPEG-PS
File size : 1 024 MiB
Duration : 20mn 21s
Overall bit rate mode : Variable
Overall bit rate : 7 028 Kbps
Video
ID : 224 (0xE0)
Format : MPEG Video
Format version : Version 2
Format profile : Main@Main
Format settings, BVOP : Yes
Format settings, Matrix : Custom
Format settings, GOP : Variable
Format settings, picture struc : Frame
Duration : 20mn 21s
Bit rate mode : Variable
Bit rate : 5 352 Kbps
Width : 720 pixels
Height : 576 pixels
Display aspect ratio : 16:9
Frame rate : 25.000 fps
Standard : PAL
Color space : YUV
Chroma subsampling : 4:2:0
Bit depth : 8 bits
Scan type : Interlaced
Scan order : Top Field First
Compression mode : Lossy
Bits/(Pixel*Frame) : 0.516
Time code of first frame : 00:59:45:00
Time code source : Group of pictures header
Stream size : 780 MiB (76%)
Audio #1
ID : 189 (0xBD)-128 (0x80)
Format : AC-3
Format/Info : Audio Coding 3
Mode extension : CM (complete main)
Format settings, Endianness : Big
Muxing mode : DVD-Video
Duration : 20mn 21s
Bit rate mode : Constant
Bit rate : 384 Kbps
Channel(s) : 6 channels
Channel positions : Front: L C R, Side: L R, LFE
Sampling rate : 48.0 KHz
Bit depth : 16 bits
Compression mode : Lossy
Stream size : 55.9 MiB (5%)
Audio #2
ID : 189 (0xBD)-129 (0x81)
Format : AC-3
Format/Info : Audio Coding 3
Mode extension : CM (complete main)
Format settings, Endianness : Big
Muxing mode : DVD-Video
Duration : 20mn 21s
Bit rate mode : Constant
Bit rate : 384 Kbps
Channel(s) : 6 channels
Channel positions : Front: L C R, Side: L R, LFE
Sampling rate : 48.0 KHz
Bit depth : 16 bits
Compression mode : Lossy
Stream size : 55.9 MiB (5%)
Audio #3
ID : 189 (0xBD)-130 (0x82)
Format : AC-3
Format/Info : Audio Coding 3
Mode extension : CM (complete main)
Format settings, Endianness : Big
Muxing mode : DVD-Video
Duration : 20mn 21s
Bit rate mode : Constant
Bit rate : 384 Kbps
Channel(s) : 6 channels
Channel positions : Front: L C R, Side: L R, LFE
Sampling rate : 48.0 KHz
Bit depth : 16 bits
Compression mode : Lossy
Stream size : 55.9 MiB (5%)
Audio #4
ID : 189 (0xBD)-131 (0x83)
Format : AC-3
Format/Info : Audio Coding 3
Mode extension : CM (complete main)
Format settings, Endianness : Big
Muxing mode : DVD-Video
Duration : 20mn 21s
Bit rate mode : Constant
Bit rate : 192 Kbps
Channel(s) : 2 channels
Channel positions : Front: L R
Sampling rate : 48.0 KHz
Bit depth : 16 bits
Compression mode : Lossy
Stream size : 28.0 MiB (3%)
Audio #5
ID : 189 (0xBD)-132 (0x84)
Format : AC-3
Format/Info : Audio Coding 3
Mode extension : CM (complete main)
Format settings, Endianness : Big
Muxing mode : DVD-Video
Duration : 20mn 21s
Bit rate mode : Constant
Bit rate : 192 Kbps
Channel(s) : 2 channels
Channel positions : Front: L R
Sampling rate : 48.0 KHz
Bit depth : 16 bits
Compression mode : Lossy
Stream size : 28.0 MiB (3%)
Text #1
ID : 189 (0xBD)-33 (0x21)
Format : RLE
Format/Info : Run-length encoding
Muxing mode : DVD-Video
Duration : 20mn 21s
Delay relative to video : 40ms
Text #2
ID : 189 (0xBD)-32 (0x20)
Format : RLE
Format/Info : Run-length encoding
Muxing mode : DVD-Video
Menu




   Похожие торренты   Торрент   Размер 
В этой теме нет новых непрочитанных сообщений. Час пик / Rush Hour (1998) DVD9+DVD5 | D | Коллекционное издание

6 | 6

8.92 ГБ

В этой теме нет новых непрочитанных сообщений. Армагеддон / Armageddon (1998) BDRip 1080p | D

169 | 17

11.55 ГБ

В этой теме нет новых непрочитанных сообщений. Армагеддон / Armageddon (1998) BDRip 720p | 60 FPS

128 | 59

7.59 ГБ

В этой теме нет новых непрочитанных сообщений. Армагеддон / Armageddon (1998) HDRip от Scarabey | D

260 | 27

1.45 ГБ

В этой теме нет новых непрочитанных сообщений. Армагеддон / Armageddon (1998) HDRip от Scarabey | D

257 | 24

2.89 ГБ

В этой теме нет новых непрочитанных сообщений. Армагеддон / Armageddon (1998) HDRip от Scarabey | D

59 | 13

892.25 МБ

В этой теме нет новых непрочитанных сообщений. Армагеддон / Armageddon (1998) HDRip от Scarabey | D

238 | 17

2.18 ГБ




Вы не можете начинать темы
Вы не можете отвечать на сообщения
Вы не можете редактировать свои сообщения
Вы не можете удалять свои сообщения
Вы не можете добавлять вложения

Перейти:  
 Вход
ppkBB3cker v.2 © 2008-2014 @ PPK
[ Time : 0.033s | 18 Queries | GZIP : Off ]

cron