img image001 image001 image001 image001 image001 image001 image001 image001 image001 image001 image001 image001 image001 image001 image001 image001

Planets Sun Sun Sun
Статистика раздачи
Автор: Nickolas3434 | Размер: 3 ГБ | Добавлен: 22 янв 2015
Раздают: 254    Качают: 34
Скачать торрент
Скачать торрент
Описание торрента

СообщениеДобавлено: 22 янв 2015 

Информация о фильме
Название: В поисках приключений
Оригинальное название: The Quest
Год выхода: 1996
Жанр: боевик, приключения
Режиссер: Жан-Клод Ван Дамм
В ролях: Жан-Клод Ван Дамм / Jean-Claude Van Damme (Christopher Dubois), Роджер Мур / Roger Moore (Lord Edgar Dobbs), Джеймс Римар / James Remar (Maxie Devine), Джанет Ганн / Janet Gunn (Carrie Newton), Джек МакГи / Jack McGee (Harry Smythe), Аки Алеонг / Aki Aleong (Khao), Абдель Кисси / Abdel Qissi (Khan, (Mongolian Fighter)), Луис Мэндилор / Louis Mandylor (Riggi), Чанг Чинг Пенг Чаплин / Chang Ching Peng Chaplin (Master Tchi), Райан Кутрона / Ryan Cutrona (Officer O'Keefe)
О фильме:
Было время, когда в мире еще хватало места для пиратской резни, ловушек контрабандистов, работорговцев и древних тайн загадочного Востока. Когда настоящие мужчины могли отправиться на поиски невероятных приключений. Уличный преступник отправляется в путешествие в поисках своего прошлого и будущего.
Его одиссея проходит через самые экзотические страны и живописнейшие уголки земного шара, от подворотен Нью-Йорка до загадочного волшебного тибетского Затерянного Города, где становится для него испытанием на честь и мужество в древних мифических состязаниях «Ган-генг» - боях до победного конца лучших бойцов со всего мира за обладание вожделенным призом - Золотым Драконом.

Страна: США
Продолжительность: 01:34:35
Перевод: Профессиональный (многоголосый) + Двухголосый закадровый
Файл
Кодек: h264
Качество: BDRip 720 от SuperMin
Видео: 1280x544 (2.35:1), 3878 kbps, 23.976 fps
Звук:
Русский (AC-3, 2ch, 192 kbps) - Двухголосый закадровый, ТВЦ
Русский (AC-3, 2ch, 192 kbps) - Многоголосый закадровый, ОРТ
Русский (AC-3, 2ch, 192 kbps) - Многоголосый закадровый, ТК "Россия" (студия Нота)
Субтитры: Русские, английские
General
Unique ID : 183191144731185501678536408289102707769 (0x89D154C42D885F20A22E62D70982BC39)
Complete name : F:ФИЛЬМЫВ ПОИСКАХ ПРИКЛЮЧЕНИЙ.mkv
Format : Matroska
Format version : Version 4 / Version 2
File size : 3.00 GiB
Duration : 1h 34mn
Overall bit rate : 4 544 Kbps
Encoded date : UTC 2015-01-22 07:49:01
Writing application : mkvmerge v7.5.0 ('Glass Culture') 64bit built on Jan 4 2015 16:48:44
Writing library : libebml v1.3.1 + libmatroska v1.4.2
_STATISTICS_WRITING_APP : mkvmerge v7.5.0 ('Glass Culture') 64bit built on Jan 4 2015 16:48:44
_STATISTICS_WRITING_DATE_UT : 2015-01-22 07:49:01
_STATISTICS_TAGS : BPS DURATION NUMBER_OF_FRAMES NUMBER_OF_BYTES
DURATION : 01:29:56.850000000
NUMBER_OF_FRAMES : 1084
NUMBER_OF_BYTES : 5271168
Video
ID : 1
Format : AVC
Format/Info : Advanced Video Codec
Format profile : High@L4.1
Format settings, CABAC : Yes
Format settings, ReFrames : 12 frames
Codec ID : V_MPEG4/ISO/AVC
Duration : 1h 34mn
Bit rate : 3 878 Kbps
Width : 1 280 pixels
Height : 544 pixels
Display aspect ratio : 2.35:1
Original display aspect rat : 2.35:1
Frame rate mode : Constant
Frame rate : 23.976 fps
Color space : YUV
Chroma subsampling : 4:2:0
Bit depth : 8 bits
Scan type : Progressive
Bits/(Pixel*Frame) : 0.232
Stream size : 2.56 GiB (85%)
Writing library : x264 core 142 r2479kMod dd79a61
Encoding settings : cabac=1 / ref=12 / deblock=1:-1:-1 / analyse=0x3:0x133 / me=umh / subme=9 / psy=1 / fade_compensate=0.00 / psy_rd=1.00:0.15 / mixed_ref=1 / me_range=32 / chroma_me=1 / trellis=2 / 8x8dct=1 / cqm=0 / deadzone=21,11 / fast_pskip=0 / chroma_qp_offset=-3 / threads=3 / lookahead_threads=1 / sliced_threads=0 / nr=0 / decimate=1 / interlaced=0 / bluray_compat=0 / constrained_intra=0 / fgo=0 / bframes=6 / b_pyramid=2 / b_adapt=2 / b_bias=0 / direct=3 / weightb=1 / open_gop=0 / weightp=2 / keyint=240 / keyint_min=23 / scenecut=40 / intra_refresh=0 / rc=crf / mbtree=0 / crf=19.0000 / qcomp=0.60 / qpmin=0 / qpmax=69 / qpstep=4 / ip_ratio=1.40 / pb_ratio=1.30 / aq=1:1.00
Language : English
Default : Yes
Forced : No
DURATION : 01:34:34.878000000
NUMBER_OF_FRAMES : 136061
NUMBER_OF_BYTES : 2800379945
_STATISTICS_WRITING_APP : mkvmerge v7.5.0 ('Glass Culture') 64bit built on Jan 4 2015 16:48:44
_STATISTICS_WRITING_DATE_UT : 2015-01-22 07:49:01
_STATISTICS_TAGS : BPS DURATION NUMBER_OF_FRAMES NUMBER_OF_BYTES
Audio #1
ID : 2
Format : AC-3
Format/Info : Audio Coding 3
Mode extension : CM (complete main)
Format settings, Endianness : Big
Codec ID : A_AC3
Duration : 1h 34mn
Bit rate mode : Constant
Bit rate : 192 Kbps
Channel(s) : 2 channels
Channel positions : Front: L R
Sampling rate : 48.0 KHz
Bit depth : 16 bits
Compression mode : Lossy
Stream size : 130 MiB (4%)
Default : Yes
Forced : Yes
Audio #2
ID : 3
Format : AC-3
Format/Info : Audio Coding 3
Mode extension : CM (complete main)
Format settings, Endianness : Big
Codec ID : A_AC3
Duration : 1h 34mn
Bit rate mode : Constant
Bit rate : 192 Kbps
Channel(s) : 2 channels
Channel positions : Front: L R
Sampling rate : 48.0 KHz
Bit depth : 16 bits
Compression mode : Lossy
Stream size : 130 MiB (4%)
Default : No
Forced : No
Audio #3
ID : 4
Format : AC-3
Format/Info : Audio Coding 3
Mode extension : CM (complete main)
Format settings, Endianness : Big
Codec ID : A_AC3
Duration : 1h 34mn
Bit rate mode : Constant
Bit rate : 192 Kbps
Channel(s) : 2 channels
Channel positions : Front: L R
Sampling rate : 48.0 KHz
Bit depth : 16 bits
Compression mode : Lossy
Stream size : 130 MiB (4%)
Default : No
Forced : No
Text #1
ID : 5
Format : PGS
Muxing mode : zlib
Codec ID : S_HDMV/PGS
Codec ID/Info : The same subtitle format used on BDs/HD-DVDs
Default : Yes
Forced : No
Text #2
ID : 6
Format : PGS
Muxing mode : zlib
Codec ID : S_HDMV/PGS
Codec ID/Info : The same subtitle format used on BDs/HD-DVDs
Default : No
Forced : No


Релиз от: SuperMin



   Похожие торренты   Торрент   Размер 
В этой теме нет новых непрочитанных сообщений. В поисках приключений / The Quest (1996) BDRip-AVC | P, P2, A

2 | 0

3.56 ГБ

В этой теме нет новых непрочитанных сообщений. В поисках приключений / The Quest (1996) BDRip | P

537 | 35

1.45 ГБ

В этой теме нет новых непрочитанных сообщений. В поисках приключений / The Quest (1996) BDRip-AVC от MediaClub

7 | 4

3.37 ГБ

В этой теме нет новых непрочитанных сообщений. В поисках приключений / The Quest (1996) BDRip 1080p от Freeisland

6 | 9

11.48 ГБ

В этой теме нет новых непрочитанных сообщений. В поисках приключений / The Quest (1996) HDRip-AVC от New-Team | P

92 | 19

744.46 МБ

В этой теме нет новых непрочитанных сообщений. В поисках Джеки / Xun zhao Cheng Long (2009) BDRip 720р от SuperMin | L2

30 | 4

4.99 ГБ

В этой теме нет новых непрочитанных сообщений. В поисках Галактики / Galaxy Quest (1999) BDRip-AVC от ExKinoRay | P

23 | 0

746.01 МБ




Вы не можете начинать темы
Вы не можете отвечать на сообщения
Вы не можете редактировать свои сообщения
Вы не можете удалять свои сообщения
Вы не можете добавлять вложения

Перейти:  
 Вход
ppkBB3cker v.2 © 2008-2014 @ PPK
[ Time : 0.040s | 17 Queries | GZIP : Off ]

cron