img image001 image001 image001 image001 image001 image001 image001 image001 image001 image001 image001 image001 image001 image001 image001

Planets Sun Sun Sun
Статистика раздачи
Автор: Nickolas3434 | Размер: 8.85 ГБ | Добавлен: 04 фев 2015
Раздают: 499    Качают: 26
Скачать торрент
Скачать торрент
Описание торрента

СообщениеДобавлено: 04 фев 2015 

Информация о фильме
Название: Стрингер
Оригинальное название: Nightcrawler
Жанр: Триллер, драма, криминал
Год выхода: 2014
Режиссер: Дэн Гилрой
В ролях: Джейк Джилленхол, Рене Руссо, Риз Ахмед, Билл Пэкстон, Майкл Пападжон, Марко Родригес, Джеймс Хуанг, Кент Шокнек, Пэт Харви, Шэрон Тэй
О фильме:
Луис Блум- лос-анжелесский безработный, промышляющий воровством цветмета с улиц. Однажды он становится свидетелем ДТП на скоростном шоссе и видит, как материалы с него, снятые вездесущими пронырливыми журналистами, нарасхват раскупаются разными телекомпаниями. И Лу, купив видеокамеру, решает стать фрилансером - независимым видеооператором, продающим свои горячие репортажи с места событий тем, кто больше заплатит. И вот уже его красный «Форд-Мустанг» колесит по улицам Лос — Анжелеса, всё глубже и глубже проникая в его криминальные тайны…

Страна: США
Студия: Bold Films
Продолжительность: 01:57:52
Перевод: Профессиональный двухголосый
Файл
Кодек: h.264
Качество: BDRip 1080p
Видео: MPEG-4 AVC, 1920x800, 9 089 Кбит/с, 23.976 кадр/с
Звук:
Аудио #1: Русский ( AC3, 2ch, 128 Кбит/с, 48.0 KH z) Профессиональный двухголосый
Аудио #2: Английский (DTS, 6ch, 1 509 Кбит/с, 48.0 KHz)
Complete name : Nightcrawler.2014.1080p.BluRay.x264-SPARKS.mkv
Format : Matroska
Format version : Version 4 / Version 2
File size : 8.85 GiB
Duration : 1h 58mn
Overall bit rate : 10.7 Mbps
Encoded date : UTC 2015-01-30 00:46:55
Writing application : mkvmerge v7.4.0 ('Circles') 64bit built on Dec 12 2014 12:19:56
Writing library : libebml v1.3.0 + libmatroska v1.4.1
DURATION : 01:57:56.192000000
NUMBER_OF_FRAMES : 221131
NUMBER_OF_BYTES : 113219072
_STATISTICS_WRITING_APP : mkvmerge v7.4.0 ('Circles') 64bit built on Dec 12 2014 12:19:56
_STATISTICS_WRITING_DATE_UTC : 2015-01-30 00:46:55
_STATISTICS_TAGS : BPS DURATION NUMBER_OF_FRAMES NUMBER_OF_BYTES
Video
ID : 1
Format : AVC
Format/Info : Advanced Video Codec
Format profile : High@L4.1
Format settings, CABAC : Yes
Format settings, ReFrames : 5 frames
Codec ID : V_MPEG4/ISO/AVC
Duration : 1h 58mn
Bit rate : 9 089 Kbps
Width : 1 920 pixels
Height : 800 pixels
Display aspect ratio : 2.40:1
Frame rate mode : Constant
Frame rate : 23.976 fps
Color space : YUV
Chroma subsampling : 4:2:0
Bit depth : 8 bits
Scan type : Progressive
Bits/(Pixel*Frame) : 0.247
Stream size : 7.32 GiB (83%)
Writing library : x264 core 144 r2525 40bb568
Encoding settings : cabac=1 / ref=5 / deblock=1:0:0 / analyse=0x3:0x133 / me=umh / subme=7 / psy=1 / psy_rd=1.00:0.00 / mixed_ref=1 / me_range=16 / chroma_me=1 / trellis=1 / 8x8dct=1 / cqm=0 / deadzone=21,11 / fast_pskip=0 / chroma_qp_offset=-2 / threads=60 / lookahead_threads=6 / sliced_threads=0 / nr=0 / decimate=1 / interlaced=0 / bluray_compat=0 / constrained_intra=0 / bframes=3 / b_pyramid=2 / b_adapt=1 / b_bias=0 / direct=1 / weightb=1 / open_gop=0 / weightp=2 / keyint=250 / keyint_min=23 / scenecut=40 / intra_refresh=0 / rc_lookahead=40 / rc=2pass / mbtree=1 / bitrate=9089 / ratetol=1.0 / qcomp=0.60 / qpmin=0 / qpmax=69 / qpstep=4 / cplxblur=20.0 / qblur=0.5 / ip_ratio=1.40 / aq=1:1.00
Language : English
Default : Yes
Forced : No
DURATION : 01:58:05.256000000
NUMBER_OF_FRAMES : 169876
NUMBER_OF_BYTES : 8047180230
_STATISTICS_WRITING_APP : mkvmerge v7.4.0 ('Circles') 64bit built on Dec 12 2014 12:19:56
_STATISTICS_WRITING_DATE_UTC : 2015-01-30 00:46:55
_STATISTICS_TAGS : BPS DURATION NUMBER_OF_FRAMES NUMBER_OF_BYTES
Audio #1
ID : 2
Format : AC-3
Format/Info : Audio Coding 3
Mode extension : CM (complete main)
Format settings, Endianness : Big
Codec ID : A_AC3
Duration : 1h 58mn
Bit rate mode : Constant
Bit rate : 128 Kbps
Channel(s) : 2 channels
Channel positions : Front: L R
Sampling rate : 48.0 KHz
Bit depth : 16 bits
Compression mode : Lossy
Stream size : 108 MiB (1%)
Language : Russian
Default : Yes
Forced : Yes
Audio #2
ID : 3
Format : DTS
Format/Info : Digital Theater Systems
Mode : 16
Format settings, Endianness : Big
Codec ID : A_DTS
Duration : 1h 58mn
Bit rate mode : Constant
Bit rate : 1 509 Kbps
Channel(s) : 6 channels
Channel positions : Front: L C R, Side: L R, LFE
Sampling rate : 48.0 KHz
Bit depth : 24 bits
Compression mode : Lossy
Stream size : 1.24 GiB (14%)
Language : English
Default : No
Forced : No
Menu
00:00:00.000 : en:00:00:00.000
00:06:24.509 : en:00:06:24.509
00:11:22.849 : en:00:11:22.849
00:16:16.350 : en:00:16:16.350
00:23:49.803 : en:00:23:49.803
00:30:47.054 : en:00:30:47.054
00:36:29.521 : en:00:36:29.521
00:42:44.479 : en:00:42:44.479
00:46:55.604 : en:00:46:55.604
00:53:16.735 : en:00:53:16.735
01:00:54.150 : en:01:00:54.150
01:07:27.252 : en:01:07:27.252
01:13:05.798 : en:01:13:05.798
01:18:23.908 : en:01:18:23.908
01:25:06.059 : en:01:25:06.059
01:29:24.150 : en:01:29:24.150
01:36:17.981 : en:01:36:17.981
01:44:54.830 : en:01:44:54.830
01:48:37.553 : en:01:48:37.553
01:53:45.944 : en:01:53:45.944




   Похожие торренты   Торрент   Размер 
В этой теме нет новых непрочитанных сообщений. Стрингер / Nightcrawler (2014) BDRip 1080p | P, A

172 | 24

24.25 ГБ

В этой теме нет новых непрочитанных сообщений. Стрингер / Nightcrawler (2014) BDRip 1080p | iTunes

193 | 25

11.99 ГБ

В этой теме нет новых непрочитанных сообщений. Стрингер / Nightcrawler (2014) BDRemux 1080p | L2

50 | 6

29.32 ГБ

В этой теме нет новых непрочитанных сообщений. Стрингер / Nightcrawler (2014) BDRip-AVC | A, L2

62 | 10

4.84 ГБ

В этой теме нет новых непрочитанных сообщений. Стрингер / Nightcrawler (2014) BDRip 720p | P

568 | 45

6.69 ГБ

В этой теме нет новых непрочитанных сообщений. Стрингер / Nightcrawler (2014) BDRip-AVC от HQCLUB | P

98 | 5

3.63 ГБ

В этой теме нет новых непрочитанных сообщений. Стрингер / Nightcrawler (2014) BDRip от HQCLUB

338 | 17

2.18 ГБ




Вы не можете начинать темы
Вы не можете отвечать на сообщения
Вы не можете редактировать свои сообщения
Вы не можете удалять свои сообщения
Вы не можете добавлять вложения

Перейти:  
Для Мосгорсуда, Роскомнадзора и рекламодателей: mosgorsud-torrent[собачка]yandex.ru
 Вход
ppkBB3cker v.2 © 2008-2014 @ PPK
[ Time : 0.056s | 19 Queries | GZIP : Off ]

cron