img image001 image001 image001 image001 image001 image001 image001 image001 image001 image001 image001 image001 image001 image001 image001 image001

Planets Sun Sun Sun
Статистика раздачи
Автор: Nickolas3434 | Размер: 4.65 ГБ | Добавлен: 16 фев 2015
Раздают: 594    Качают: 94
Скачать торрент
Скачать торрент
Описание торрента

СообщениеДобавлено: 16 фев 2015 

Информация о фильме
Название: Гризли
Оригинальное название: Grizzly
Год выхода: 2014
Жанр: ужасы, боевик, триллер
Режиссер: Дэвид Хэкл
В ролях: Пайпер Перабо, Билли Боб Торнтон, Джеймс Марсден, Томас Джейн, Скотт Гленн, Адам Бич, Михаэлла МакМанус, Патрик Сабонгуй, Луиза Д’Оливера, Сет Исаак Джонсон
О фильме:
Первый — только что вышедший из тюрьмы отчужденец, второй — шериф небольшого города, помогающий своей глухонемой невесте. Они братья, которые больше не находят слов друг для друга. Наладить отношения могла помочь вылазка на природу, однако этим планам мешает сбыться разъяренный медведь…

Страна: США, Канада
Продолжительность: 01:33:32
Перевод: Любительский одноголосый, закадровый [R.A.I.M]
Файл
Кодек: H.264
Качество: BDRip 720p
Видео: MPEG-4 / AVC, 1280x720 (16:9), 23.976 fps ~ 5165 Kbps
Звук:
Аудио #1: AC3, 48 KHz 6 ch ~ 448 Kb/s (русский)
Аудио #2: DTS, 48 KHz 6 ch ~ 1510 Kb/s (английский)
Субтитры: отсутствуют
Общее
Уникальный идентификатор : 195022630442091815104222136564306886323 (0x92B7FE0CA04840028AE95E194A233EB3)
Полное имя : Q:TorFgrizzly.2014.720p.mkv
Формат : Matroska
Версия формата : Version 2
Размер файла : 4,65 Гбайт
Продолжительность : 1 ч. 33 м.
Общий поток : 7122 Кбит/сек
Дата кодирования : UTC 2015-02-14 13:16:42
Программа кодирования : mkvmerge v5.4.0 ('Piper') built on Mar 10 2012 13:34:39
Библиотека кодирования : libebml v1.2.3 + libmatroska v1.3.0
DURATION : 01:33:32.246000000
NUMBER_OF_FRAMES : 526148
NUMBER_OF_BYTES : 1058609864
_STATISTICS_WRITING_APP : mkvmerge v7.3.0 ('Nouages') 64bit built on Oct 22 2014 18:53:34
_STATISTICS_WRITING_DATE_UTC : 2015-02-11 17:20:04
_STATISTICS_TAGS : BPS DURATION NUMBER_OF_FRAMES NUMBER_OF_BYTES
Видео
Идентификатор : 1
Формат : AVC
Формат/Информация : Advanced Video Codec
Профиль формата : High@L4.1
Параметр CABAC формата : Да
Параметр ReFrames формата : 5 кадров
Режим смешивания : Header stripping
Идентификатор кодека : V_MPEG4/ISO/AVC
Продолжительность : 1 ч. 33 м.
Битрейт : 5166 Кбит/сек
Ширина : 1280 пикселей
Высота : 720 пикселей
Соотношение сторон : 16:9
Частота кадров : 23,976 кадра/сек
Цветовое пространство : YUV
Субдискретизация насыщенности : 4:2:0
Битовая глубина : 8 бит
Тип развёртки : Прогрессивная
Бит/(Пиксели*Кадры) : 0.234
Размер потока : 3,28 Гбайт (71%)
Библиотека кодирования : x264 core 144 r2525 40bb568
Настройки программы : cabac=1 / ref=5 / deblock=1:-3:-3 / analyse=0x3:0x133 / me=umh / subme=8 / psy=1 / psy_rd=1.00:0.15 / mixed_ref=1 / me_range=16 / chroma_me=1 / trellis=1 / 8x8dct=1 / cqm=0 / deadzone=21,11 / fast_pskip=0 / chroma_qp_offset=-3 / threads=18 / lookahead_threads=3 / sliced_threads=0 / nr=0 / decimate=1 / interlaced=0 / bluray_compat=0 / constrained_intra=0 / bframes=3 / b_pyramid=2 / b_adapt=2 / b_bias=0 / direct=3 / weightb=1 / open_gop=0 / weightp=2 / keyint=240 / keyint_min=23 / scenecut=40 / intra_refresh=0 / rc_lookahead=50 / rc=2pass / mbtree=1 / bitrate=5166 / ratetol=1.0 / qcomp=0.60 / qpmin=0 / qpmax=69 / qpstep=4 / cplxblur=20.0 / qblur=0.5 / ip_ratio=1.40 / aq=1:1.00
Язык : English
Default : Да
Forced : Нет
DURATION : 01:33:32.232000000
NUMBER_OF_FRAMES : 134559
NUMBER_OF_BYTES : 3623832831
_STATISTICS_WRITING_APP : mkvmerge v7.3.0 ('Nouages') 64bit built on Oct 22 2014 18:53:34
_STATISTICS_WRITING_DATE_UTC : 2015-02-11 17:20:04
_STATISTICS_TAGS : BPS DURATION NUMBER_OF_FRAMES NUMBER_OF_BYTES
Аудио #1
Идентификатор : 2
Формат : AC-3
Формат/Информация : Audio Coding 3
Расширение режима : CM (complete main)
Режим смешивания : Header stripping
Идентификатор кодека : A_AC3
Продолжительность : 1 ч. 33 м.
Вид битрейта : Постоянный
Битрейт : 448 Кбит/сек
Каналы : 6 каналов
Расположение каналов : Front: L C R, Side: L R, LFE
Частота : 48,0 КГц
Битовая глубина : 16 бит
Метод сжатия : С потерями
Размер потока : 300 Мбайт (6%)
Заголовок : R.A.I.M
Язык : Russian
Default : Да
Forced : Нет
Аудио #2
Идентификатор : 3
Формат : DTS
Формат/Информация : Digital Theater Systems
Режим смешивания : Header stripping
Идентификатор кодека : A_DTS
Продолжительность : 1 ч. 33 м.
Вид битрейта : Постоянный
Битрейт : 1510 Кбит/сек
Каналы : 6 каналов
Расположение каналов : Front: L C R, Side: L R, LFE
Частота : 48,0 КГц
Битовая глубина : 16 бит
Метод сжатия : С потерями
Размер потока : 1010 Мбайт (21%)
Язык : English
Default : Нет
Forced : Нет
Меню
00:00:00.000 : en:00:00:00.000
00:07:08.386 : en:00:07:08.386
00:14:01.841 : en:00:14:01.841
00:20:33.357 : en:00:20:33.357
00:28:20.323 : en:00:28:20.323
00:35:51.983 : en:00:35:51.983
00:44:18.405 : en:00:44:18.405
00:52:45.620 : en:00:52:45.620
01:01:04.285 : en:01:01:04.285
01:10:15.252 : en:01:10:15.252
01:17:56.672 : en:01:17:56.672
01:26:24.679 : en:01:26:24.679



   Похожие торренты   Торрент   Размер 
В этой теме нет новых непрочитанных сообщений. Гризли / Into the Grizzly Maze (2015) BDRip 720p | Р | iTunes

467 | 121

4.65 ГБ

В этой теме нет новых непрочитанных сообщений. Гризли / Grizzly (2014) DVD-9 | L1

26 | 4

5.13 ГБ

В этой теме нет новых непрочитанных сообщений. Гризли / Grizzly (2014) HDRip | L2

457 | 40

1.46 ГБ

В этой теме нет новых непрочитанных сообщений. Гризли / Grizzly (2014) HDRip | L2

386 | 8

1.46 ГБ

В этой теме нет новых непрочитанных сообщений. Гризли / Grizzly (2014) BDRemux 1080p от NovaLan

19 | 35

18.48 ГБ

В этой теме нет новых непрочитанных сообщений. Империя гризли / Grizzly Еmpire (2015) HDTVRip 720p | D

0 | 0

1.58 ГБ

В этой теме нет новых непрочитанных сообщений. Гризли / Into the Grizzly Maze (2015) BDRip 1080p | L2, L1

5 | 5

9.66 ГБ




Вы не можете начинать темы
Вы не можете отвечать на сообщения
Вы не можете редактировать свои сообщения
Вы не можете удалять свои сообщения
Вы не можете добавлять вложения

Перейти:  
 Вход
ppkBB3cker v.2 © 2008-2014 @ PPK
[ Time : 0.029s | 18 Queries | GZIP : Off ]

cron