img image001 image001 image001 image001 image001 image001 image001 image001 image001 image001 image001 image001 image001 image001 image001 image001

Planets Sun Sun Sun
Статистика раздачи
Автор: Nickolas3434 | Размер: 1.46 ГБ | Добавлен: 16 фев 2015
Раздают: 17    Качают: 6
Скачать торрент
Скачать торрент
Описание торрента

СообщениеДобавлено: 16 фев 2015 


АНОНСЫ МОИХ РИПОВ! ЛУЧШИЕ ФИЛЬМЫ И СЕРИАЛЫ ВСЕЙ ПЛАНЕТЫ! Подпишись :)

Наоборот / Всё наоборот / Vice Versa

Страна: США
Год выпуска: 1988
Жанр: фэнтези, комедия
Продолжительность: 01:38:33
Перевод: Профессиональный (многоголосый закадровый)
Оригинальная аудиодорожка: нет
Cубтитры: нет
Режиссер: Брайан Гилберт / Brian Gilbert
В ролях: Джадж Райнхолд, Фред Сэвэдж, Коринн Борер, Свузи Кёрц, Джейн Качмарек, Дэвид Провэл, Уильям Принц, Глория Гиффорд, Беверли Арчер, Гарри С. Мёрфи...
Описание: Во время поездки на восток в руках Маршала, обыкновенного служащего из универмага, случайно оказывается таинственный череп, украшенный орнаментом.
Под действием его магических сил Маршал и его одиннадцатилетний сын обмениваются телами, и начинается целая череда смешных недоразумений. Ко всему прочему, за волшебным амулетом охотится парочка международных авантюристов…

Качество: WEB-DLRip [WEB-DL 1080p]
Формат: AVI
Видео кодек: XviD
Аудио кодек: AC3
Видео: 688x384 (1.79:1), 23.976 fps, XviD build 73 ~1914 kbps avg, 0.30 bit/pixel
Аудио: 48 kHz, AC3 Dolby Digital, 2/0 (L,R) ch, ~192 kbps

Раздача от:


D:Мои рипыVice.Versa.1988.web-dlrip.dexter_lex.avi
General
Complete name : D:Мои рипыVice.Versa.1988.web-dlrip.dexter_lex.avi
Format : AVI
Format/Info : Audio Video Interleave
File size : 1.46 GiB
Duration : 1h 38mn
Overall bit rate : 2 116 Kbps
Movie name : Vice.Versa.1988.web-dlrip.dexter_lex
Director : dexter lex
Writing application : VirtualDubMod 1.5.10.3 | www.virtualdub-fr.org || (build 2550/release)
Video #0
ID : 0
Format : MPEG-4 Visual
Format profile : Advanced Simple@L5
Format settings, BVOP : 1
Format settings, QPel : No
Format settings, GMC : No warppoints
Format settings, Matrix : Custom
Codec ID : XVID
Codec ID/Hint : XviD
Duration : 1h 38mn
Bit rate : 1 915 Kbps
Width : 688 pixels
Height : 384 pixels
Display aspect ratio : 16:9
Frame rate : 23.976 fps
Color space : YUV
Chroma subsampling : 4:2:0
Bit depth : 8 bits
Scan type : Progressive
Compression mode : Lossy
Bits/(Pixel*Frame) : 0.302
Stream size : 1.32 GiB (90%)
Writing library : XviD 73
Audio #1
ID : 1
Format : AC-3
Format/Info : Audio Coding 3
Format profile : Dolby Digital
Mode extension : CM (complete main)
Codec ID : 2000
Duration : 1h 38mn
Bit rate mode : Constant
Bit rate : 192 Kbps
Channel(s) : 2 channels
Channel positions : Front: L R
Sampling rate : 48.0 KHz
Bit depth : 16 bits
Compression mode : Lossy
Stream size : 135 MiB (9%)
Alignment : Split accross interleaves
Interleave, duration : 42 ms (1.00 video frame)
Interleave, preload duration : 500 ms



   Похожие торренты   Торрент   Размер 
В этой теме нет новых непрочитанных сообщений. Всё наоборот / Vice Versa (1988) DVDRip от Киномагия

4 | 4

1.37 ГБ

В этой теме нет новых непрочитанных сообщений. Все наоборот / Vice Versa (1988) HDRip от Koenig | P

7 | 4

1.45 ГБ

В этой теме нет новых непрочитанных сообщений. Всё наоборот / Vice Versa (1988) WEB-DL 1080p от Brazzass

15 | 12

4 ГБ

В этой теме нет новых непрочитанных сообщений. Всё наоборот (1981) DVDRip от New-Team

16 | 4

744.87 МБ

В этой теме нет новых непрочитанных сообщений. Всё наоборот (1981) DVDRip-AVC от New-Team

15 | 2

744.64 МБ

В этой теме нет новых непрочитанных сообщений. Поворот наоборот [01-04 из 04] (2014) WEB-DLRip-AVC от MediaClub

114 | 35

2.36 ГБ

В этой теме нет новых непрочитанных сообщений. Все наоборот (1981) DVDRip

28 | 3

1.09 ГБ




Вы не можете начинать темы
Вы не можете отвечать на сообщения
Вы не можете редактировать свои сообщения
Вы не можете удалять свои сообщения
Вы не можете добавлять вложения

Перейти:  
 Вход
ppkBB3cker v.2 © 2008-2014 @ PPK
[ Time : 0.036s | 18 Queries | GZIP : Off ]

cron