img image001 image001 image001 image001 image001 image001 image001 image001 image001 image001 image001 image001 image001 image001 image001 image001

Planets Sun Sun Sun
Статистика раздачи
Автор: Nickolas3434 | Размер: 5.4 ГБ | Добавлен: 22 фев 2015
Раздают: 90    Качают: 6
Скачать торрент
Скачать торрент
Описание торрента

СообщениеДобавлено: 22 фев 2015 

Страна: США
Жанр: фантастика, триллер, драма
Год выпуска: 1990
Продолжительность: 01:54:12
Перевод: Профессиональный (полное дублирование), Профессиональный (многоголосый, закадровый), 3 x Профессиональный (двухголосый, закадровый), Авторский (Иванов), Оригинальный
Субтитры: русские, английские.


Режиссер: Джоэл Шумахер / Joel Schumacher


В ролях: Кифер Сазерленд (Nelson), Джулия Робертс (Dr. Rachel Mannus), Кевин Бейкон (David Labraccio), Уильям Болдуин (Dr. Joe Hurley), Оливер Платт (Randy Steckle), Кимберли Скотт (Winnie Hicks), Джошуа Рудой (Billy Mahoney), Бенжамин Мутон (Rachel's Father), Аерик Иган (Young Nelson), Кеша Рид (Young Winnie), Хоуп Дэвис (Anne Coldren), Джим Ортлиб (Uncle Dave)
Дублёры: Алексей Иващенко (Nelson), Сергей Чекан (Nelson (Варус-видео); David Labraccio), Мария Овчинникова (Dr. Rachel Mannus), Елена Астафьева (Dr. Rachel Mannus (Варус-видео)), Дмитрий Полонский (David Labraccio (Варус-видео)), Андрей Казанцев (Dr. Joe Hurley), Игорь Тарадайкин (Dr. Joe Hurley (Варус-видео)), Александр Белый (Randy Steckle), Вячеслав Баранов (Randy Steckle (Варус-видео)), Светлана Старикова (Winnie Hicks), Ирина Савина (Winnie Hicks (Варус-видео)), Марина Тарасова (Варус-видео)


Описание: Достаточно сделать всего один шаг, чтобы перейти хрупкую грань между жизнью и смертью. Группа студентов-медиков выбрала для своих исследований запретную и опасную область. Будущие врачи решили проникнуть в тайну небытия, которое наступает после остановки сердца. Один за другим студенты погружаются в состояние клинической смерти, отправляясь в непредсказуемое путешествие по ту сторону жизни. Результаты исследований оказались настолько неожиданными, что побывавший ТАМ уже не может продолжать прежний образ жизни, даже если бы и хотел.



MPAA: R - Лицам до 17 лет обязательно присутствие взрослого


Семпл


Качество: BDRip
Контейнер: MKV
Видео: AVC, 1280x544 (2.35:1), 4746 kbps, 23,976 fps, 0,284 bpp
Аудио №1: русский / AC3 / 5.1 / 48 kHz / 448 kbps Дубляж
Аудио №2: русский / AC3 / 2.0 / 48 kHz / 192 kbps MVO ( R5 )
Аудио №3: русский / AC3 / 2.0 / 48 kHz / 224 kbps DVO ( ОРТ / Селена Интернешнл ) | VHSRip by Fikaloid
Аудио №4: русский / AC3 / 2.0 / 48 kHz / 192 kbps DVO ( Видеосервис ) | VHSRip by bora86bora
Аудио №5: русский / AC3 / 2.0 / 48 kHz / 192 kbps DVO ( Garsu Paraulis ) | VHSRip by Fikaloid
Аудио №6: русский / AC3 / 2.0 / 48 kHz / 192 kbps AVO ( Иванов )
Аудио №7: английский / AC3 / 5.1 / 48 kHz / 448 kbps
Навигация по главам: есть


ЦитатаКто-то писал:
Огромная благодарность:
За оцифровку переводов ОРТ и Garsu Paraulis с кассет - Fikaloid
За оцифровку перевода Видеосервис с кассеты - bora86bora
За синхронизацию ОРТ, Garsu Pasaulis и Видеосервис - akchurin.a2011


-----------------------------------------------------------------------------
x264 [info]: frame I:2610 Avg QP:14.48 size: 81093
x264 [info]: frame P:101926 Avg QP:17.14 size: 33418
x264 [info]: frame B:59768 Avg QP:20.31 size: 9378
-----------------------------------------------------------------------------
Format : Matroska
Format version : Version 2
File size : 5.40 GiB
Duration : 1h 54mn
Overall bit rate : 6 769 Kbps
Movie name : = Коматозники / Flatliners BDRip 720p by SC Kosmos =
Encoded date : UTC 2015-02-01 09:20:53
Writing application : mkvmerge v3.3.0 ('Language') gebaut am Mar 24 2010 14:59:24
Writing library : libebml v0.8.0 + libmatroska v0.9.0
Video
ID : 1
Format : AVC
Format/Info : Advanced Video Codec
Format profile : High@L4.1
Format settings, CABAC : Yes
Format settings, ReFrames : 8 frames
Codec ID : V_MPEG4/ISO/AVC
Duration : 1h 54mn
Bit rate : 4 747 Kbps
Width : 1 280 pixels
Height : 544 pixels
Display aspect ratio : 2.35:1
Frame rate : 23.976 fps
Color space : YUV
Chroma subsampling : 4:2:0
Bit depth : 8 bits
Scan type : Progressive
Bits/(Pixel*Frame) : 0.284
Stream size : 3.79 GiB (70%)
Title : Коматозники / Flatliners BDRip 720p by SC Kosmos
Writing library : x264 core 144 r2525 40bb568
Encoding settings : cabac=1 / ref=8 / deblock=1:-2:-2 / analyse=0x3:0x113 / me=umh / subme=11 / psy=1 / psy_rd=1.00:0.00 / mixed_ref=1 / me_range=32 / chroma_me=1 / trellis=2 / 8x8dct=1 / cqm=0 / deadzone=21,11 / fast_pskip=0 / chroma_qp_offset=-2 / threads=12 / lookahead_threads=1 / sliced_threads=0 / nr=0 / decimate=1 / interlaced=0 / bluray_compat=0 / constrained_intra=0 / bframes=10 / b_pyramid=2 / b_adapt=1 / b_bias=0 / direct=3 / weightb=1 / open_gop=0 / weightp=2 / keyint=240 / keyint_min=23 / scenecut=40 / intra_refresh=0 / rc_lookahead=40 / rc=crf / mbtree=0 / crf=19.0 / qcomp=0.60 / qpmin=0 / qpmax=69 / qpstep=4 / vbv_maxrate=62500 / vbv_bufsize=78125 / crf_max=0.0 / nal_hrd=none / filler=0 / ip_ratio=1.40 / pb_ratio=1.30 / aq=1:1.00
Language : English
Default : No
Forced : No
Audio #1
ID : 2
Format : AC-3
Format/Info : Audio Coding 3
Mode extension : CM (complete main)
Codec ID : A_AC3
Duration : 1h 54mn
Bit rate mode : Constant
Bit rate : 448 Kbps
Channel(s) : 6 channels
Channel positions : Front: L C R, Side: L R, LFE
Sampling rate : 48.0 KHz
Bit depth : 16 bits
Compression mode : Lossy
Stream size : 366 MiB (7%)
Title : Дубляж
Language : Russian
Default : Yes
Forced : No
Audio #2
ID : 3
Format : AC-3
Format/Info : Audio Coding 3
Mode extension : CM (complete main)
Codec ID : A_AC3
Duration : 1h 54mn
Bit rate mode : Constant
Bit rate : 192 Kbps
Channel(s) : 2 channels
Channel positions : Front: L R
Sampling rate : 48.0 KHz
Bit depth : 16 bits
Compression mode : Lossy
Stream size : 157 MiB (3%)
Title : MVO ( R5 )
Language : Russian
Default : No
Forced : No
Audio #3
ID : 4
Format : AC-3
Format/Info : Audio Coding 3
Mode extension : CM (complete main)
Codec ID : A_AC3
Duration : 1h 54mn
Bit rate mode : Constant
Bit rate : 224 Kbps
Channel(s) : 2 channels
Channel positions : Front: L R
Sampling rate : 48.0 KHz
Bit depth : 16 bits
Compression mode : Lossy
Stream size : 183 MiB (3%)
Title : DVO ( ОРТ / Селена Интернешнл )
Language : Russian
Default : No
Forced : No
Audio #4
ID : 5
Format : AC-3
Format/Info : Audio Coding 3
Mode extension : CM (complete main)
Codec ID : A_AC3
Duration : 1h 54mn
Bit rate mode : Constant
Bit rate : 192 Kbps
Channel(s) : 2 channels
Channel positions : Front: L R
Sampling rate : 48.0 KHz
Bit depth : 16 bits
Compression mode : Lossy
Stream size : 157 MiB (3%)
Title : DVO ( Видеосервис )
Language : Russian
Default : No
Forced : No
Audio #5
ID : 6
Format : AC-3
Format/Info : Audio Coding 3
Mode extension : CM (complete main)
Codec ID : A_AC3
Duration : 1h 54mn
Bit rate mode : Constant
Bit rate : 192 Kbps
Channel(s) : 2 channels
Channel positions : Front: L R
Sampling rate : 48.0 KHz
Bit depth : 16 bits
Compression mode : Lossy
Stream size : 157 MiB (3%)
Title : DVO ( Garsu Paraulis )
Language : Russian
Default : No
Forced : No
Audio #6
ID : 7
Format : AC-3
Format/Info : Audio Coding 3
Mode extension : CM (complete main)
Codec ID : A_AC3
Duration : 1h 54mn
Bit rate mode : Constant
Bit rate : 192 Kbps
Channel(s) : 2 channels
Channel positions : Front: L R
Sampling rate : 48.0 KHz
Bit depth : 16 bits
Compression mode : Lossy
Stream size : 157 MiB (3%)
Title : AVO ( Иванов )
Language : Russian
Default : No
Forced : No
Audio #7
ID : 8
Format : AC-3
Format/Info : Audio Coding 3
Mode extension : CM (complete main)
Codec ID : A_AC3
Duration : 1h 54mn
Bit rate mode : Constant
Bit rate : 448 Kbps
Channel(s) : 6 channels
Channel positions : Front: L C R, Side: L R, LFE
Sampling rate : 48.0 KHz
Bit depth : 16 bits
Compression mode : Lossy
Stream size : 366 MiB (7%)
Language : English
Default : No
Forced : No
Text #1
ID : 9
Format : UTF-8
Codec ID : S_TEXT/UTF8
Codec ID/Info : UTF-8 Plain Text
Language : Russian
Default : No
Forced : No
Text #2
ID : 10
Format : UTF-8
Codec ID : S_TEXT/UTF8
Codec ID/Info : UTF-8 Plain Text
Language : English
Default : No
Forced : No
Menu
00:00:00.000 : en:00:00:00.000
00:06:38.023 : en:00:06:38.023
00:13:38.484 : en:00:13:38.484
00:20:42.825 : en:00:20:42.825
00:28:33.003 : en:00:28:33.003
00:34:11.883 : en:00:34:11.883
00:42:23.624 : en:00:42:23.624
00:48:03.422 : en:00:48:03.422
00:56:50.407 : en:00:56:50.407
01:00:40.595 : en:01:00:40.595
01:10:51.497 : en:01:10:51.497
01:16:34.256 : en:01:16:34.256
01:25:09.563 : en:01:25:09.563
01:30:37.641 : en:01:30:37.641
01:39:09.110 : en:01:39:09.110
01:45:42.253 : en:01:45:42.253









   Похожие торренты   Торрент   Размер 
В этой теме нет новых непрочитанных сообщений. Коматозники / Flatliners (1990) BDRip 720p | D, P, P2, A

42 | 37

5.99 ГБ

В этой теме нет новых непрочитанных сообщений. Коматозники / Flatliners (1990) BDRip 1080p от NNNB

273 | 117

7.75 ГБ

В этой теме нет новых непрочитанных сообщений. Коматозники / Flatliners (2017) BDRip 720p от k.e.n & MegaPeer | D | iTunes

607 | 56

4.32 ГБ

В этой теме нет новых непрочитанных сообщений. Коматозники / Flatliners (2017) BDRip 720p от ExKinoRay | iTunes

1661 | 140

6.31 ГБ

В этой теме нет новых непрочитанных сообщений. Коматозники / Flatliners (2017) BDRip от MegaPeer | iTunes

127 | 3

746.32 МБ

В этой теме нет новых непрочитанных сообщений. Коматозники / Flatliners (2017) BDRip-AVC от k.e.n & MegaPeer | D | iTunes

516 | 49

2.13 ГБ

В этой теме нет новых непрочитанных сообщений. Коматозники / Flatliners (2017) BDRip от ExKinoRay | iTunes

90 | 7

1.41 ГБ




Вы не можете начинать темы
Вы не можете отвечать на сообщения
Вы не можете редактировать свои сообщения
Вы не можете удалять свои сообщения
Вы не можете добавлять вложения

Перейти:  
 Вход
ppkBB3cker v.2 © 2008-2014 @ PPK
[ Time : 0.041s | 17 Queries | GZIP : Off ]

cron