img image001 image001 image001 image001 image001 image001 image001 image001 image001 image001 image001 image001 image001 image001 image001 image001

Planets Sun Sun Sun
Статистика раздачи
Автор: Nickolas3434 | Размер: 2.19 ГБ | Добавлен: 08 мар 2015
Раздают: 28    Качают: 5
Скачать торрент
Скачать торрент
Описание торрента

СообщениеДобавлено: 08 мар 2015 

Информация о фильме
Название: Тайм аут
Оригинальное название: L'emploi du temps
Год выхода: 2001
Жанр: Драма
Режиссер: Лоран Канте
В ролях: Орельен Рекуан, Карин Вьяр, Серж Ливрозет, Мари Канте, Феликс Канте, Оливье Лежубуа, Элизабет Джойнет, Найджел Палмер, Кристоф Чарльз, Дидье Перез, Филипп Жуанне, Жак Аньес, Тьерри Фернандез, Элизабет ЛаЛэйнн, Лола Роуд, Мэнон Лепаж, Николас Бюва
О фильме:
Главный герой Венсан проводит рабочие недели в командировках, а в выходные делится далекими от реальной жизни деталями своих поездок с любимой женой Мюриэль и тремя детьми... Но профессиональная жизнь Венсана – тотальная фикция. Он просто не решился сообщить своей семье, что уже несколько недель назад потерял свою должность консультанта, в которой проработал многие годы. Венсан чувствует насущную необходимость придумать себе новую престижную работу в Женеве. И, таким образом, с утра до вечера врать. Чтобы поиметь наличность, ему приходится обманывать своих друзей, доверяющих ему свои деньги для инвестиции в несуществующие проекты… Всё, чего хотел Венсан – взять тайм-аут в карьерной гонке, но при этом сохранить жизнь своей семьи такой, как она есть. Однако обман не может длиться бесконечно…

Страна: Франция
Студия: Haut et Court, Canal+, Centre Européen Cinématographique Rhône-Alpes
Продолжительность: 02:08:11
Перевод: Профессиональный многоголосый закадровый
Файл
Кодек: XviD
Качество: DVDRip
Видео: XviD, 1528 Кбит/с, 720x400
Звук:
• №1: Русский (AC3, 6 ch, 448 Кбит/с) | Профессиональный (многоголосый закадровый)
• №2: Французский (AC3, 6 ch, 448 Кбит/с) | Оригинал




Общее
Полное имя : D:FilmTaim.Aut.2001.XviD.DVDRip.All.Films.avi
Формат : AVI
Формат/Информация : Audio Video Interleave
Профиль формата : OpenDML
Размер файла : 2,19 Гбайт
Продолжительность : 2 ч. 8 м.
Общий поток : 2442 Кбит/сек
Программа кодирования : VirtualDubMod 1.5.10.2 (build 2540/release)
Библиотека кодирования : VirtualDubMod build 2540/release
Видео
Идентификатор : 0
Формат : MPEG-4 Visual
Профиль формата : Advanced Simple@L5
Параметр BVOP формата : 1
Параметр QPel формата : Нет
Параметр GMC формата : Без точки перехода
Параметр матрицы формата : Выборочная
Идентификатор кодека : XVID
Идентификатор кодека/Подсказка : XviD
Продолжительность : 2 ч. 8 м.
Битрейт : 1528 Кбит/сек
Ширина : 720 пикселей
Высота : 400 пикселей
Соотношение сторон : 16:9
Частота кадров : 25,000 кадров/сек
Цветовое пространство : YUV
Субдискретизация насыщенности : 4:2:0
Битовая глубина : 8 бит
Тип развёртки : Прогрессивная
Метод сжатия : С потерями
Бит/(Пиксели*Кадры) : 0.212
Размер потока : 1,37 Гбайт (63%)
Библиотека кодирования : XviD 1.2.1 (UTC 2008-12-04)
Аудио #1
Идентификатор : 1
Формат : AC-3
Формат/Информация : Audio Coding 3
Расширение режима : CM (complete main)
Параметр Endianness формата : Big
Идентификатор кодека : 2000
Продолжительность : 2 ч. 8 м.
Вид битрейта : Постоянный
Битрейт : 448 Кбит/сек
Каналы : 6 каналов
Расположение каналов : Front: L C R, Side: L R, LFE
Частота : 48,0 КГц
Битовая глубина : 16 бит
Метод сжатия : С потерями
Размер потока : 411 Мбайт (18%)
Выравнивание : Разделение по промежуткам
Продолжительность промежутка : 40 мс. (1,00 видеокадр)
Время предзагрузки промежутка : 500 мс.
Аудио #2
Идентификатор : 2
Формат : AC-3
Формат/Информация : Audio Coding 3
Расширение режима : CM (complete main)
Параметр Endianness формата : Big
Идентификатор кодека : 2000
Продолжительность : 2 ч. 8 м.
Вид битрейта : Постоянный
Битрейт : 448 Кбит/сек
Каналы : 6 каналов
Расположение каналов : Front: L C R, Side: L R, LFE
Частота : 48,0 КГц
Битовая глубина : 16 бит
Метод сжатия : С потерями
Размер потока : 411 Мбайт (18%)
Выравнивание : Разделение по промежуткам
Продолжительность промежутка : 40 мс. (1,00 видеокадр)
Время предзагрузки промежутка : 500 мс.

Релиз от: Релиз группы: All Films, автор рипа: teko



   Похожие торренты   Торрент   Размер 
В этой теме нет новых непрочитанных сообщений. Ямакаси: Свобода в движении / Yamakasi - Les samouraïs des temps modernes (2001) WEB-DLRip от MegaPeer | D, P2, A

117 | 10

2.19 ГБ

В этой теме нет новых непрочитанных сообщений. Ямакаси: Свобода в движении / Yamakasi - Les samourais des temps modernes (2001) WEB-DLRip-AVC от NNM-CLUB | D, P, A

42 | 1

2.21 ГБ

В этой теме нет новых непрочитанных сообщений. Ямакаси: Свобода в движении / Yamakasi: Les samouraïs des temps modernes (2001) WEB-DL 720p от HDClub | D, P2, A

237 | 11

3.61 ГБ

В этой теме нет новых непрочитанных сообщений. Третий тайм (1962) DVDRip-AVC

80 | 17

1.85 ГБ

В этой теме нет новых непрочитанных сообщений. Тайм-код / Timecode (2000) DVDRip | Р, P1

6 | 0

1.58 ГБ

В этой теме нет новых непрочитанных сообщений. Время приключений / Le temps de l'aventure (2013) DVDRip | P

103 | 19

1.46 ГБ

В этой теме нет новых непрочитанных сообщений. Властелины времени / Les maîtres du temps (1982) DVDRip-AVC

288 | 51

1.45 ГБ




Вы не можете начинать темы
Вы не можете отвечать на сообщения
Вы не можете редактировать свои сообщения
Вы не можете удалять свои сообщения
Вы не можете добавлять вложения

Перейти:  
 Вход
ppkBB3cker v.2 © 2008-2014 @ PPK
[ Time : 0.022s | 18 Queries | GZIP : Off ]

cron