img image001 image001 image001 image001 image001 image001 image001 image001 image001 image001 image001 image001 image001 image001 image001 image001

Planets Sun Sun Sun
Статистика раздачи
Автор: Nickolas3434 | Размер: 3.92 ГБ | Добавлен: 17 мар 2015
Раздают: 319    Качают: 4
Скачать торрент
Скачать торрент
Описание торрента

СообщениеДобавлено: 17 мар 2015 

Юлий Цезарь / Julius Caesar

Страна: Великобритания
Жанр: драма, военный, исторический
Год выпуска: 1970
Продолжительность: 01:56:14
Перевод: Профессиональный (многоголосый закадровый)
Cубтитры: английские
Оригинальная аудиодорожка: английский
Режиссер: Стюарт Берг / Stuart Burge
В ролях: Чарлтон Хестон, Джейсон Робардс, Джон Гилгуд, Ричард Джонсон, Роберт Вон, Ричард Чемберлен, Дайана Ригг, Кристофер Ли, Джилл Беннетт, Дерек Годфри
Описание: По пьесе Уильяма Шекспира. Фильм повествует о жизни великого Римского Императора Юлия Цезаря. Но это не просто эпитафия знаменитому оратору, политику, военачальнику и диктатору Великой Римской Империи. Это трагедия мужчины, пережившего смерть любимой женщины и трагедия Императора, пожертвовавшего любовью царицы Клеопатры ради могущества своей страны...

Исходник: Julius Caesar (1970) 1080p BD-Remux
Качество видео: BDRip-AVC | sample
Формат видео: MKV
Видео кодек: x264
Видео: AVC 1042x444 (2.35:1), 23.976 fps, ~4450 Kbps, 0.40 bit/pixel
Аудио #1: Russian AC3 2ch 48kHz 192Kbps | MVO
Аудио #2: English AC3 1ch 48kHz 192Kbps | Original
Формат субтитров: softsub (SRT)
Главы: есть
Complete name : D:...Julius.Caesar.1970.BDRip.x264.DD2.0.Rus.Eng-E76.mkv
Format : Matroska
Format version : Version 2
File size : 3.92 GiB
Duration : 1h 56mn
Overall bit rate : 4 834 Kbps
Movie name : Julius.Caesar.1970.BDRip.x264.DD2.0.Rus.Eng-E76
Encoded date : UTC 2014-07-01 00:27:21
Writing application : mkvmerge v7.0.0 ('Where We Going') 64bit built on Jun 9 2014 15:16:27
Writing library : libebml v1.3.0 + libmatroska v1.4.1
Video
ID : 1
Format : AVC
Format/Info : Advanced Video Codec
Format profile : High@L4.1
Format settings, CABAC : Yes
Format settings, ReFrames : 14 frames
Codec ID : V_MPEG4/ISO/AVC
Duration : 1h 56mn
Bit rate : 4 354 Kbps
Width : 1 042 pixels
Height : 444 pixels
Display aspect ratio : 2.35:1
Frame rate mode : Constant
Frame rate : 23.976 fps
Color space : YUV
Chroma subsampling : 4:2:0
Bit depth : 8 bits
Scan type : Progressive
Bits/(Pixel*Frame) : 0.393
Stream size : 3.53 GiB (90%)
Title : Encode by E76
Writing library : x264 core 130 r2273kMod b3065e6
Encoding settings : cabac=1 / ref=14 / deblock=1:-2:-2 / analyse=0x3:0x113 / me=umh / subme=11 / psy=1 / fade_compensate=0.00 / psy_rd=1.00:0.00 / mixed_ref=1 / me_range=48 / chroma_me=1 / trellis=2 / 8x8dct=1 / cqm=0 / deadzone=21,11 / fast_pskip=1 / chroma_qp_offset=-2 / threads=6 / lookahead_threads=1 / sliced_threads=0 / nr=0 / decimate=1 / interlaced=0 / bluray_compat=0 / constrained_intra=0 / bframes=16 / b_pyramid=2 / b_adapt=2 / b_bias=0 / direct=1 / weightb=1 / open_gop=0 / weightp=2 / keyint=240 / keyint_min=23 / scenecut=40 / intra_refresh=0 / rc_lookahead=0 / rc=crf / mbtree=0 / crf=20.7500 / qcomp=0.70 / qpmin=0 / qpmax=69 / qpstep=4 / vbv_maxrate=50000 / vbv_bufsize=62500 / crf_max=0.0 / nal_hrd=none / ip_ratio=1.40 / pb_ratio=1.30 / aq=3:1.10
Language : English
Default : No
Forced : No
Matrix coefficients : BT.709
Audio #1
ID : 2
Format : AC-3
Format/Info : Audio Coding 3
Format profile : Dolby Digital
Mode extension : CM (complete main)
Format settings, Endianness : Big
Codec ID : A_AC3
Duration : 1h 56mn
Bit rate mode : Constant
Bit rate : 192 Kbps
Channel(s) : 2 channels
Channel positions : Front: L R
Sampling rate : 48.0 KHz
Bit depth : 16 bits
Compression mode : Lossy
Stream size : 160 MiB (4%)
Title : MVO
Language : Russian
Default : Yes
Forced : No
Audio #2
ID : 3
Format : AC-3
Format/Info : Audio Coding 3
Mode extension : CM (complete main)
Format settings, Endianness : Big
Codec ID : A_AC3
Duration : 1h 56mn
Bit rate mode : Constant
Bit rate : 192 Kbps
Channel(s) : 1 channel
Channel positions : Front: C
Sampling rate : 48.0 KHz
Bit depth : 16 bits
Compression mode : Lossy
Stream size : 160 MiB (4%)
Title : Original
Language : English
Default : No
Forced : No
Text
ID : 4
Format : UTF-8
Codec ID : S_TEXT/UTF8
Codec ID/Info : UTF-8 Plain Text
Language : English
Default : No
Forced : No
Menu
00:00:00.000 : en:00:00:00.000
00:15:11.035 : en:00:15:11.035
00:31:14.873 : en:00:31:14.873
00:43:33.027 : en:00:43:33.027
01:00:09.815 : en:01:00:09.815
01:17:11.126 : en:01:17:11.126
01:32:24.414 : en:01:32:24.414
01:41:51.605 : en:01:41:51.605
--[NoImage] raw [info]: 1042x444p 1:1 @ 24000/1001 fps (cfr)
--[NoImage] x264 [info]: frame I:1136 Avg QP:22.35 size: 76976
--[NoImage] x264 [info]: frame P:28991 Avg QP:23.59 size: 38749
--[NoImage] x264 [info]: frame B:137082 Avg QP:24.96 size: 19454
--[NoImage] x264 [info]: consecutive B-frames: 0.9% 0.5% 2.1% 16.2% 12.6% 35.0% 10.2% 6.3% 5.9% 3.3% 2.3% 2.8% 0.9% 0.5% 0.3% 0.2% 0.1%
--[NoImage] x264 [info]: kb/s:4448.03



vs source



   Похожие торренты   Торрент   Размер 
В этой теме нет новых непрочитанных сообщений. Юлий Цезарь / Julius Caesar (1970) BDRip | P

8 | 5

1.6 ГБ

В этой теме нет новых непрочитанных сообщений. Юлий Цезарь / Julius Caesar (1970) BDRip 720p | P

0 | 2

3.8 ГБ

В этой теме нет новых непрочитанных сообщений. Юлий Цезарь / Julius Caesar (1970) BDRip 1080p | P

0 | 3

8.57 ГБ

В этой теме нет новых непрочитанных сообщений. Юлий Цезарь / Julius Caesar (1970) BDRip-AVC от MediaClub | P

2 | 3

3.16 ГБ

В этой теме нет новых непрочитанных сообщений. Юлий Цезарь / Julius Caesar (1970) BDRip - AVC от Тorrent-Хzona

33 | 9

1.53 ГБ

В этой теме нет новых непрочитанных сообщений. Юлий Цезарь / Julius Caesar (2002) BDRip от HQCLUB

166 | 61

2.9 ГБ

В этой теме нет новых непрочитанных сообщений. Юлий Цезарь / Julius Caesar (2002) BDRip-AVC от Rulya74

160 | 125

2.9 ГБ




Вы не можете начинать темы
Вы не можете отвечать на сообщения
Вы не можете редактировать свои сообщения
Вы не можете удалять свои сообщения
Вы не можете добавлять вложения

Перейти:  
 Вход
ppkBB3cker v.2 © 2008-2014 @ PPK
[ Time : 0.039s | 18 Queries | GZIP : Off ]

cron