img image001 image001 image001 image001 image001 image001 image001 image001 image001 image001 image001 image001 image001 image001 image001 image001

Planets Sun Sun Sun
Статистика раздачи
Автор: Nickolas3434 | Размер: 5.75 ГБ | Добавлен: 27 мар 2015
Раздают: 114    Качают: 8
Скачать торрент
Скачать торрент
Описание торрента

СообщениеДобавлено: 27 мар 2015 

Прощай, детка, прощай / Gone Baby Gone

«Всем нужна правда... пока они ее не находят»

Русское название: Прощай, детка, прощай
Оригинальное название: Gone Baby Gone
Год выпуска: 2007
Жанр: триллер, драма, криминал, детектив
Выпущено: США
Режиссер: Бен Аффлек
В ролях: Кейси Аффлек , Мишель Монахэн , Морган Фриман , Эд Харрис , Эми Райан , Джон Эштон , Эми Мэдиган , Титус Уэлливер , Майкл Кеннет Уильямс , Эди Гатеги , Марк Марголис , Мадлен О’Брайэн
Перевод: Многоголосый закадровый, Авторский (одноголосый)

Сюжет фильма:
В пригороде Бостона без вести пропадает четырехлетняя Аманда МакКриди. Когда официальные власти прекращают попытки найти исчезнувшую девочку, ее тетя упрашивает двух частных детективов, Патрика Кензи и Анджелу Дженнаро, начать расследование.
Поначалу они не торопятся взяться за безнадежное дело, однако новые обстоятельства заставляют их поставить на кон не только собственные профессиональные репутации, но и жизни.



Фильм снят по мотивам романа Денниса Лихэйна «Прощай, детка, прощай» (Gone Baby Gone, 1998) из детективной серии «Кензи/Дженнаро».


Качество: BDRip 720p (исходник Blu-ray)
Формат: AVC (библиотека кодирования x.264)
Контейнер (Расширение): MKV
Видео: 1280x692, 4930 Кбит/сек, 23,976 кадр/сек, 0,232 Бит/[Пиксели*Кадры]
Аудио №1: русский / AC3 / 5.1 / 48 kHz / 384 kbps / |Многоголосый закадровый, Видеосервис|
Аудио №2: русский / AC3 / 5.1 / 48 kHz / 640 kbps / |Многоголосый закадровый, Киномания|
Аудио №3: русский / AC3 / 5.1 / 48 kHz / 640 kbps / |Авторский, В.Королев|
Аудио №4: английский / AC3 / 5.1 / 48 kHz / 640 kbps /
Субтитры: русские (forced), русские (Full), английские (Full)
Навигация по главам(Чаптеры): есть
Продолжительность: 01:53:55
Автор рипа: Сообщество:

Format : Matroska
Format version : Version 2
File size : 5.75 GiB
Duration : 1h 53mn
Overall bit rate : 7 229 Kbps
Movie name : Proshhaj, detka, proshhaj.(2007).BDRip.720p.[denis100]
Encoded date : UTC 2015-03-26 09:38:36
Writing application : mkvmerge v5.8.0 ('No Sleep / Pillow') built on Sep 2 2012 15:37:04
Writing library : libebml v1.2.3 + libmatroska v1.3.0
Video
ID : 1
Format : AVC
Format/Info : Advanced Video Codec
Format profile : High@L4.1
Format settings, CABAC : Yes
Format settings, ReFrames : 9 frames
Codec ID : V_MPEG4/ISO/AVC
Duration : 1h 53mn
Bit rate : 4 930 Kbps
Width : 1 280 pixels
Height : 692 pixels
Display aspect ratio : 1.850
Frame rate : 23.976 fps
Color space : YUV
Chroma subsampling : 4:2:0
Bit depth : 8 bits
Scan type : Progressive
Bits/(Pixel*Frame) : 0.232
Stream size : 3.80 GiB (66%)
Title : Proshhaj, detka, proshhaj.(2007).BDRip.720p.[denis100]
Writing library : x264 core 146 r2538 121396c
Encoding settings : cabac=1 / ref=9 / deblock=1:-3:-3 / analyse=0x3:0x133 / me=umh / subme=11 / psy=1 / psy_rd=1.00:0.00 / mixed_ref=1 / me_range=48 / chroma_me=1 / trellis=2 / 8x8dct=1 / cqm=0 / deadzone=21,11 / fast_pskip=0 / chroma_qp_offset=-2 / threads=6 / lookahead_threads=1 / sliced_threads=0 / nr=0 / decimate=1 / interlaced=0 / bluray_compat=0 / constrained_intra=0 / bframes=12 / b_pyramid=2 / b_adapt=2 / b_bias=0 / direct=3 / weightb=1 / open_gop=0 / weightp=2 / keyint=240 / keyint_min=23 / scenecut=40 / intra_refresh=0 / rc=2pass / mbtree=0 / bitrate=4930 / ratetol=1.0 / qcomp=0.60 / qpmin=0 / qpmax=69 / qpstep=4 / cplxblur=20.0 / qblur=0.5 / ip_ratio=1.40 / pb_ratio=1.30 / aq=1:0.90
Language : English
Default : Yes
Forced : No
Audio #1
ID : 2
Format : AC-3
Format/Info : Audio Coding 3
Mode extension : CM (complete main)
Codec ID : A_AC3
Duration : 1h 53mn
Bit rate mode : Constant
Bit rate : 384 Kbps
Channel(s) : 6 channels
Channel positions : Front: L C R, Side: L R, LFE
Sampling rate : 48.0 KHz
Bit depth : 16 bits
Compression mode : Lossy
Stream size : 313 MiB (5%)
Title : Многоголосый закадровый, Видеосервис
Language : Russian
Default : Yes
Forced : No
Audio #2
ID : 3
Format : AC-3
Format/Info : Audio Coding 3
Mode extension : CM (complete main)
Codec ID : A_AC3
Duration : 1h 53mn
Bit rate mode : Constant
Bit rate : 640 Kbps
Channel(s) : 6 channels
Channel positions : Front: L C R, Side: L R, LFE
Sampling rate : 48.0 KHz
Bit depth : 16 bits
Compression mode : Lossy
Stream size : 522 MiB (9%)
Title : Многоголосый закадровый, Киномания
Language : Russian
Default : No
Forced : No
Audio #3
ID : 4
Format : AC-3
Format/Info : Audio Coding 3
Mode extension : CM (complete main)
Codec ID : A_AC3
Duration : 1h 53mn
Bit rate mode : Constant
Bit rate : 640 Kbps
Channel(s) : 6 channels
Channel positions : Front: L C R, Side: L R, LFE
Sampling rate : 48.0 KHz
Bit depth : 16 bits
Compression mode : Lossy
Stream size : 522 MiB (9%)
Title : Авторский, В.Королев
Language : Russian
Default : No
Forced : No
Audio #4
ID : 5
Format : AC-3
Format/Info : Audio Coding 3
Mode extension : CM (complete main)
Codec ID : A_AC3
Duration : 1h 53mn
Bit rate mode : Constant
Bit rate : 640 Kbps
Channel(s) : 6 channels
Channel positions : Front: L C R, Side: L R, LFE
Sampling rate : 48.0 KHz
Bit depth : 16 bits
Compression mode : Lossy
Stream size : 522 MiB (9%)
Language : English
Default : No
Forced : No
Text #1
ID : 6
Format : UTF-8
Codec ID : S_TEXT/UTF8
Codec ID/Info : UTF-8 Plain Text
Title : forced
Language : Russian
Default : Yes
Forced : No
Text #2
ID : 7
Format : UTF-8
Codec ID : S_TEXT/UTF8
Codec ID/Info : UTF-8 Plain Text
Title : Full
Language : Russian
Default : No
Forced : No
Text #3
ID : 8
Format : UTF-8
Codec ID : S_TEXT/UTF8
Codec ID/Info : UTF-8 Plain Text
Title : Full
Language : English
Default : No
Forced : No
Menu
00:00:00.000 : en:00:00:00.000
00:05:22.487 : en:00:05:22.487
00:10:05.104 : en:00:10:05.104
00:16:28.445 : en:00:16:28.445
00:20:51.750 : en:00:20:51.750
00:25:30.693 : en:00:25:30.693
00:30:31.871 : en:00:30:31.871
00:35:47.143 : en:00:35:47.143
00:37:11.061 : en:00:37:11.061
00:44:31.876 : en:00:44:31.876
00:52:06.623 : en:00:52:06.623
00:56:24.713 : en:00:56:24.713
01:02:16.356 : en:01:02:16.356
01:08:44.036 : en:01:08:44.036
01:13:31.323 : en:01:13:31.323
01:19:15.332 : en:01:19:15.332
01:27:00.965 : en:01:27:00.965
01:31:03.332 : en:01:31:03.332
01:39:31.465 : en:01:39:31.465
01:44:09.783 : en:01:44:09.783
01:49:06.081 : en:01:49:06.081



   Похожие торренты   Торрент   Размер 
В этой теме нет новых непрочитанных сообщений. Прощай, детка, прощай / Gone Baby Gone (2007) BDRip-AVC | P, A

12 | 3

3.92 ГБ

В этой теме нет новых непрочитанных сообщений. Прощай, детка, прощай / Gone Baby Gone (2007) BDRip-AVC | P

28 | 4

2.18 ГБ

В этой теме нет новых непрочитанных сообщений. Прощай, детка, прощай / Gone Baby Gone (2007) BDRip-AVC | P

14 | 4

739.3 МБ

В этой теме нет новых непрочитанных сообщений. Прощай, детка, прощай / Gone Baby Gone (2007) BDRemux 1080p | P, A

10 | 3

20.85 ГБ

В этой теме нет новых непрочитанных сообщений. Прощай, детка, прощай / Gone Baby Gone (2007) HDRip | КПК | P

4 | 0

512.48 МБ

В этой теме нет новых непрочитанных сообщений. Детка, детка, детка / Baby, Baby, Baby (2015) WEB-DLRip от MegaPeer | iTunes

14 | 0

745.79 МБ

В этой теме нет новых непрочитанных сообщений. Детка, детка, детка / Baby, Baby, Baby (2015) WEB-DLRip от MegaPeer | iTunes

63 | 0

1.46 ГБ




Вы не можете начинать темы
Вы не можете отвечать на сообщения
Вы не можете редактировать свои сообщения
Вы не можете удалять свои сообщения
Вы не можете добавлять вложения

Перейти:  
 Вход
ppkBB3cker v.2 © 2008-2014 @ PPK
[ Time : 0.045s | 19 Queries | GZIP : Off ]

cron