img image001 image001 image001 image001 image001 image001 image001 image001 image001 image001 image001 image001 image001 image001 image001 image001

Planets Sun Sun Sun
Статистика раздачи
Автор: Nickolas3434 | Размер: 11.55 ГБ | Добавлен: 28 мар 2015
Раздают: 169    Качают: 17
Скачать торрент
Скачать торрент
Описание торрента

СообщениеДобавлено: 28 мар 2015 

Информация о фильме
    Название: Армагеддон
    Оригинальное: Armageddon
    Год выхода: 1998
    Выпущено: Jerry Bruckheimer Films, Touchstone Pictures, Valhalla Motion Pictures
    Страна: США
    Жанр: Фантастика, боевик, триллер, приключения
    Продолжительность: 02:30:50
    Перевод: Профессиональный дублированный (Blu-Ray CEE)
    Режиссер: Майкл Бэй
    В ролях: Брюс Уиллис, Бен Аффлек, Лив Тайлер, Уилл Пэттон, Билли Боб Торнтон, Стив Бушеми, Уильям Фихтнер, Оуэн Уилсон, Майкл Кларк Дункан, Петер Стормаре




Сюжет фильма
    Тень гигантского астероида легла на Землю. До рокового столкновения остаются считанные дни. Наступает Армагеддон, трагический финал мировой истории. Чтобы предотвратить катастрофу, необходимо чудо - или совместные усилия лучших из лучших вместе с технологической мощью всего созданного человеком. Сможет ли горстка людей противостоять вселенской стихии?


Файл
    Кодек: x264
    Формат: MKV
    Качество: BDRip 1080p (Источник: Blu-ray CEE)
    Видео: MPEG-4 AVC 1920x800 pix, 23.976 fps, 9685 kbps, 0.263 Bits/Pixel
    Аудио I: Dolby Digital 5.1 ch, 48 kHz, 640 kbps (DUB)
    Аудио II: Dolby Digital 5.1 ch, 48 kHz, 640 kbps (ENG)
    Субтитры: SRT Русские (форс, полные), Английские (полные, SDH)
    Меню: Сохранены оригинальные чаптеры Blu-ray
    Сравнение: -=C исходником=-


x264 [info]: frame I:2149 Avg QP:17.32 size:155502
x264 [info]: frame P:55018 Avg QP:20.22 size: 78369
x264 [info]: frame B:159820 Avg QP:22.51 size: 39462
General
Unique ID : 175142020503847001677479483257092448171 (0x83C3204D63F3187780AD1E076FD21FAB)
Format : Matroska
Format version : Version 2
File size : 11.6 GiB
Duration : 2h 30mn
Overall bit rate : 11.0 Mbps
Movie name : Армагеддон (1998) BDRip (1080p)
Encoded date : UTC 2015-03-25 19:43:58
Writing application : mkvmerge v5.8.0 ('No Sleep / Pillow') built on Sep 2 2012 15:37:04
Writing library : libebml v1.2.3 + libmatroska v1.3.0
Video
ID : 1
Format : AVC
Format/Info : Advanced Video Codec
Format profile : High@L4.1
Format settings, CABAC : Yes
Format settings, ReFrames : 5 frames
Codec ID : V_MPEG4/ISO/AVC
Duration : 2h 30mn
Bit rate : 9 685 Kbps
Width : 1 920 pixels
Height : 800 pixels
Display aspect ratio : 2.40:1
Frame rate mode : Constant
Frame rate : 23.976 fps
Color space : YUV
Chroma subsampling : 4:2:0
Bit depth : 8 bits
Scan type : Progressive
Bits/(Pixel*Frame) : 0.263
Stream size : 9.97 GiB (86%)
Title : Release by Alex260680
Writing library : x264 core 146 r2538 121396c
Encoding settings : cabac=1 / ref=5 / deblock=1:-3:-3 / analyse=0x3:0x133 / me=umh / subme=11 / psy=1 / psy_rd=1.00:0.00 / mixed_ref=1 / me_range=32 / chroma_me=1 / trellis=2 / 8x8dct=1 / cqm=0 / deadzone=21,11 / fast_pskip=0 / chroma_qp_offset=-2 / threads=6 / lookahead_threads=1 / sliced_threads=0 / nr=0 / decimate=0 / interlaced=0 / bluray_compat=0 / constrained_intra=0 / bframes=7 / b_pyramid=2 / b_adapt=2 / b_bias=0 / direct=3 / weightb=1 / open_gop=0 / weightp=2 / keyint=240 / keyint_min=23 / scenecut=40 / intra_refresh=0 / rc=full2pass / mbtree=0 / bitrate=9685 / ratetol=1.0 / qcomp=0.60 / qpmin=0 / qpmax=69 / qpstep=4 / cplxblur=20.0 / qblur=0.5 / ip_ratio=1.40 / pb_ratio=1.30 / aq=1:0.70
Language : English
Default : Yes
Forced : No
Audio #1
ID : 2
Format : AC-3
Format/Info : Audio Coding 3
Mode extension : CM (complete main)
Format settings, Endianness : Big
Codec ID : A_AC3
Duration : 2h 30mn
Bit rate mode : Constant
Bit rate : 640 Kbps
Channel(s) : 6 channels
Channel positions : Front: L C R, Side: L R, LFE
Sampling rate : 48.0 KHz
Bit depth : 16 bits
Compression mode : Lossy
Stream size : 690 MiB (6%)
Title : DUB
Language : Russian
Default : Yes
Forced : No
Audio #2
ID : 3
Format : AC-3
Format/Info : Audio Coding 3
Mode extension : CM (complete main)
Format settings, Endianness : Big
Codec ID : A_AC3
Duration : 2h 30mn
Bit rate mode : Constant
Bit rate : 640 Kbps
Channel(s) : 6 channels
Channel positions : Front: L C R, Side: L R, LFE
Sampling rate : 48.0 KHz
Bit depth : 16 bits
Compression mode : Lossy
Stream size : 690 MiB (6%)
Title : Original
Language : English
Default : No
Forced : No
Text #1
ID : 4
Format : UTF-8
Codec ID : S_TEXT/UTF8
Codec ID/Info : UTF-8 Plain Text
Title : Forced
Language : Russian
Default : Yes
Forced : No
Text #2
ID : 5
Format : UTF-8
Codec ID : S_TEXT/UTF8
Codec ID/Info : UTF-8 Plain Text
Title : Full
Language : Russian
Default : No
Forced : No
Text #3
ID : 6
Format : UTF-8
Codec ID : S_TEXT/UTF8
Codec ID/Info : UTF-8 Plain Text
Title : Full
Language : English
Default : No
Forced : No
Text #4
ID : 7
Format : UTF-8
Codec ID : S_TEXT/UTF8
Codec ID/Info : UTF-8 Plain Text
Title : SDH
Language : English
Default : No
Forced : No
Menu
00:00:00.000 : en:Program Start / Opening Credits
00:06:21.256 : en:Nyc Hit Hard
00:11:56.299 : en:Mett Harry Stamper
00:23:14.602 : en:Nasa Briefing
00:28:47.059 : en:Building the Team
00:35:30.587 : en:The Physicals
00:39:57.520 : en:Training Begins
00:45:55.836 : en:Grace and a.J.
00:48:40.709 : en:Underwater Simulation
00:51:19.535 : en:A Day Off
00:56:26.925 : en:Shanghai's Surprised
00:59:10.839 : en:Launch Day
01:07:15.323 : en:The Countdown
01:11:16.647 : en:Rendezvous with Russians
01:21:02.816 : en:Slingshot in Space
01:24:10.629 : en:Independence Lost
01:32:42.682 : en:Freedom Good to Go
01:41:15.194 : en:Secondary Protocol
01:51:56.084 : en:Jumping the Canyon
01:55:56.158 : en:Rockhound Loses It
01:59:27.535 : en:Chaos on Earth
02:00:37.272 : en:A.J. to the Rescue
02:05:21.431 : en:Rock Storm
02:08:14.562 : en:Drawing Straws
02:12:50.838 : en:Harry Says Goodbye
02:15:00.342 : en:"Harry, You the Man!"
02:23:56.044 : en:End Credits



   Похожие торренты   Торрент   Размер 
В этой теме нет новых непрочитанных сообщений. Армагеддон / Armageddon (1998) BDRip 1080p от HELLYWOOD | Лицензия

36 | 0

13.75 ГБ

В этой теме нет новых непрочитанных сообщений. Армагеддон / Armageddon (1998) BDRip 720p | 60 FPS

128 | 59

7.59 ГБ

В этой теме нет новых непрочитанных сообщений. Армагеддон / Armageddon (1998) HDRip от Scarabey | D

260 | 27

1.45 ГБ

В этой теме нет новых непрочитанных сообщений. Армагеддон / Armageddon (1998) HDRip от Scarabey | D

59 | 13

892.25 МБ

В этой теме нет новых непрочитанных сообщений. Армагеддон / Armageddon (1998) HDRip от Scarabey | D

238 | 17

2.18 ГБ

В этой теме нет новых непрочитанных сообщений. Армагеддон / Armageddon (1998) HDRip от Scarabey | D

257 | 24

2.89 ГБ

В этой теме нет новых непрочитанных сообщений. Армагеддон / Armageddon (1998) DVD9+DVD5 | P, A | Коллекционное издание

24 | 17

9.51 ГБ




Вы не можете начинать темы
Вы не можете отвечать на сообщения
Вы не можете редактировать свои сообщения
Вы не можете удалять свои сообщения
Вы не можете добавлять вложения

Перейти:  
cron
 Вход
ppkBB3cker v.2 © 2008-2014 @ PPK
[ Time : 0.026s | 19 Queries | GZIP : Off ]

cron