img image001 image001 image001 image001 image001 image001 image001 image001 image001 image001 image001 image001 image001 image001 image001 image001

Planets Sun Sun Sun
Статистика раздачи
Автор: Nickolas3434 | Размер: 7.75 ГБ | Добавлен: 29 мар 2015
Раздают: 23    Качают: 8
Скачать торрент
Скачать торрент
Описание торрента

СообщениеДобавлено: 29 мар 2015 


Информация о фильме
    Русское название: Дети шпионов
    Оригинальное название: Spy Kids
    Год выхода: 2001
    Жанр: фантастика, боевик, комедия, приключения, семейный
    Режиссер: Роберт Родригес
    Выпущено: США
    Продолжительность: 01:27:53
    Перевод: Дублированный
    В ролях: Антонио Бандерас, Карла Гуджино, Алекса ПенаВега, Дэрил Сабара, Алан Камминг, Тони Шэлуб, Тери Хэтчер, Чич Марин, Роберт Патрик, Дэнни Трехо


Сюжет фильма
    Два самых крутых шпиона в мире: Грегорио Кортес и Ингрид, имели одно и то же секретное задание — уничтожить друг друга. Но личная встреча не принесла им ничего хорошего: они поженились и завязали со своим ремеслом… Через несколько лет исчезновение семерых спецагентов вынуждает их снова вернуться в игру. Причиной послужило то, что их бывшие коллеги, самые крутые профессионалы, начали исчезать один за другим.
    Кортесы вновь нужны агентству, которое хочет, чтобы они раскрыли секреты некоего Пальчика, формирующего армию из детей-роботов. Участь исчезновения постигает и супругов Кортесов, их похищает коварный злодей. Теперь судьба пленников зависит от того, смогут ли их дети правильно распорядиться всеми новейшими сверхсекретными шпионскими штучками из арсенала легендарных родителей.


Файл
    Качество: BDRip 1080p (исходник Blu-ray Disc Remux)
    Видео: 1920x1080, 11387 Кбит/сек, 23,976 кадр/сек, AVC, x264, High@L4.1, 16:9, 0.229 Бит/[Пиксели*Кадры]
    Аудио 1: AC-3, 640 Кбит/сек, 6 канала(ов), 48,0 КГц - Дублированный / Русский
    Аудио 2: AC-3, 640 Кбит/сек, 6 канала(ов), 48,0 КГц - Оригинал / Английский
    Субтитры: Русские | Полные, Английские | Полные
    Форсированные субтитры: Нет
    Чаптеры (Главы): Есть



Автор Рипа: Сообщество:



Format : Matroska
Format version : Version 2
File size : 7.75 GiB
Duration : 1h 27mn
Overall bit rate : 12.6 Mbps
Movie name : Дети шпионов.(2001).BDRip.1080p.[envy]
Encoded date : UTC 2015-03-29 11:38:15
Writing application : mkvmerge v5.8.0 ('No Sleep / Pillow') built on Sep 2 2012 15:37:04
Writing library : libebml v1.2.3 + libmatroska v1.3.0
Video
ID : 1
Format : AVC
Format/Info : Advanced Video Codec
Format profile : High@L4.1
Format settings, CABAC : Yes
Format settings, ReFrames : 4 frames
Codec ID : V_MPEG4/ISO/AVC
Duration : 1h 27mn
Bit rate : 11.4 Mbps
Width : 1 920 pixels
Height : 1 080 pixels
Display aspect ratio : 16:9
Frame rate mode : Constant
Frame rate : 23.976 fps
Color space : YUV
Chroma subsampling : 4:2:0
Bit depth : 8 bits
Scan type : Progressive
Bits/(Pixel*Frame) : 0.229
Stream size : 6.81 GiB (88%)
Title : Дети шпионов.(2001).BDRip.1080p.[envy]
Writing library : x264 core 146 r2538 121396c
Encoding settings : cabac=1 / ref=4 / deblock=1:-3:-3 / analyse=0x3:0x133 / me=umh / subme=11 / psy=1 / psy_rd=1.00:0.00 / mixed_ref=1 / me_range=32 / chroma_me=1 / trellis=2 / 8x8dct=1 / cqm=0 / deadzone=21,11 / fast_pskip=0 / chroma_qp_offset=-2 / threads=12 / lookahead_threads=2 / sliced_threads=0 / nr=0 / decimate=1 / interlaced=0 / bluray_compat=0 / constrained_intra=0 / bframes=7 / b_pyramid=2 / b_adapt=2 / b_bias=0 / direct=3 / weightb=1 / open_gop=0 / weightp=2 / keyint=240 / keyint_min=23 / scenecut=40 / intra_refresh=0 / rc=2pass / mbtree=0 / bitrate=11387 / ratetol=2.0 / qcomp=0.60 / qpmin=0 / qpmax=69 / qpstep=4 / cplxblur=20.0 / qblur=0.5 / ip_ratio=1.40 / pb_ratio=1.30 / aq=2:0.80
Language : English
Default : Yes
Forced : No
Audio #1
ID : 2
Format : AC-3
Format/Info : Audio Coding 3
Mode extension : CM (complete main)
Format settings, Endianness : Big
Codec ID : A_AC3
Duration : 1h 27mn
Bit rate mode : Constant
Bit rate : 640 Kbps
Channel(s) : 6 channels
Channel positions : Front: L C R, Side: L R, LFE
Sampling rate : 48.0 KHz
Bit depth : 16 bits
Compression mode : Lossy
Stream size : 402 MiB (5%)
Title : Dub
Language : Russian
Default : Yes
Forced : No
Audio #2
ID : 3
Format : AC-3
Format/Info : Audio Coding 3
Mode extension : CM (complete main)
Format settings, Endianness : Big
Codec ID : A_AC3
Duration : 1h 27mn
Bit rate mode : Constant
Bit rate : 640 Kbps
Channel(s) : 6 channels
Channel positions : Front: L C R, Side: L R, LFE
Sampling rate : 48.0 KHz
Bit depth : 16 bits
Compression mode : Lossy
Stream size : 402 MiB (5%)
Title : Eng
Language : English
Default : No
Forced : No
Text #1
ID : 4
Format : UTF-8
Codec ID : S_TEXT/UTF8
Codec ID/Info : UTF-8 Plain Text
Title : Rus full
Language : Russian
Default : No
Forced : No
Text #2
ID : 5
Format : UTF-8
Codec ID : S_TEXT/UTF8
Codec ID/Info : UTF-8 Plain Text
Title : Eng full
Language : English
Default : No
Forced : No
Menu
00:00:00.000 : :Chapter 01
00:07:20.940 : :Chapter 02
00:14:07.388 : :Chapter 03
00:22:13.373 : :Chapter 04
00:29:20.842 : :Chapter 05
00:37:34.669 : :Chapter 06
00:45:44.783 : :Chapter 07
00:49:20.791 : :Chapter 08
00:59:05.208 : :Chapter 09
01:07:37.011 : :Chapter 10
01:15:10.881 : :Chapter 11
01:20:10.931 : :Chapter 12


#77



   Похожие торренты   Торрент   Размер 
В этой теме нет новых непрочитанных сообщений. Дети шпионов / Spy Kids (2001) BDRip 1080p

37 | 7

4.37 ГБ

В этой теме нет новых непрочитанных сообщений. Дети шпионов / Spy Kids (2001) BDRip от HQCLUB | Unrated

241 | 10

1.45 ГБ

В этой теме нет новых непрочитанных сообщений. Дети шпионов : Трилогия / Spy Kids : Trilogy (2001-2003) BDRip-AVC от R.G. HD-Films | 60 fps

143 | 33

10.73 ГБ

В этой теме нет новых непрочитанных сообщений. Дети шпионов: Трилогия / Spy Kids: Trilogy (2001-2003) BDRip от HELLYWOOD

38 | 15

6.17 ГБ

В этой теме нет новых непрочитанных сообщений. Дети Шпионов: Трилогия / Spy Kids: Trilogy (2001-2003) BDRip 720p от Freeisland

1 | 3

14.17 ГБ

В этой теме нет новых непрочитанных сообщений. Дети шпионов / Spy Kids (2001) DVDRip-AVC

33 | 5

747.47 МБ

В этой теме нет новых непрочитанных сообщений. Дети шпионов / Spy Kids (2001) DVD9 | D

107 | 12

6.92 ГБ




Вы не можете начинать темы
Вы не можете отвечать на сообщения
Вы не можете редактировать свои сообщения
Вы не можете удалять свои сообщения
Вы не можете добавлять вложения

Перейти:  
 Вход
ppkBB3cker v.2 © 2008-2014 @ PPK
[ Time : 0.055s | 17 Queries | GZIP : Off ]

cron