img image001 image001 image001 image001 image001 image001 image001 image001 image001 image001 image001 image001 image001 image001 image001 image001

Planets Sun Sun Sun
Статистика раздачи
Автор: Nickolas3434 | Размер: 699.94 МБ | Добавлен: 14 апр 2015
Раздают: 25    Качают: 3
Скачать торрент
Скачать торрент
Описание торрента

СообщениеДобавлено: 14 апр 2015 

Информация о фильме
Название: Возвращение на остров Ним
Оригинальное название: Return to Nim's Island
Год выхода: 2013
Жанр: семейный, приключения, комедия
Режиссер: Брендан Мехер
В ролях: Бинди Сью Ирвин, Тоби Уоллес, Мэттью Лиллард, Джон Уотерс, Себастьян Грегори, Джек Пирсон, Натан Деррик
Oписание: 14-летняя Ним по-прежнему настроена более чем решительно — она твердо намерена защитить свой остров и его лесных обителей от устроителей курорта и браконьеров. Но теперь героиня понимает, что в столь трудном деле, как спасение ее дома, она не может рассчитывать на помощь лишь одних животных. Так у Ним появляется друг-человек — Эдмунд, который сбежал на остров с материка.

Выпущено: Австралия / Nim's Island, Mazur / Kaplan Company, Pictures in Paradise
Продолжительность: 01:30:06
Озвучивание: Профессиональное (многоголосое) [Официальный звук]
Файл
Формат: AVI
Качество: HDRip
Видео: XviD, 948 kb/s, 640x352
Звук: MP3, 128 kb/s (2 ch)
Размер: 700 MB
Скачать: Сэмпл


General
Complete name : C:UsersuserDesktopVozvrashhenie.na.ostrov.Nim.2013.P.HDRip700MB.avi
Format : AVI
Format/Info : Audio Video Interleave
File size : 700 MiB
Duration : 1h 30mn
Overall bit rate : 1 086 Kbps
Writing application : VirtualDubMod 1.5.10.2 (build 2540/release)
Writing library : VirtualDubMod build 2540/release
Video
ID : 0
Format : MPEG-4 Visual
Format profile : Advanced Simple@L5
Format settings, BVOP : 2
Format settings, QPel : No
Format settings, GMC : No warppoints
Format settings, Matrix : Default (MPEG)
Codec ID : XVID
Codec ID/Hint : XviD
Duration : 1h 30mn
Bit rate : 949 Kbps
Width : 640 pixels
Height : 352 pixels
Display aspect ratio : 16:9
Frame rate : 23.976 fps
Color space : YUV
Chroma subsampling : 4:2:0
Bit depth : 8 bits
Scan type : Progressive
Compression mode : Lossy
Bits/(Pixel*Frame) : 0.176
Stream size : 611 MiB (87%)
Writing library : XviD 1.2.1 (UTC 2008-12-04)
Audio
ID : 1
Format : MPEG Audio
Format version : Version 1
Format profile : Layer 3
Mode : Joint stereo
Mode extension : MS Stereo
Codec ID : 55
Codec ID/Hint : MP3
Duration : 1h 30mn
Bit rate mode : Constant
Bit rate : 128 Kbps
Channel(s) : 2 channels
Sampling rate : 48.0 KHz
Compression mode : Lossy
Stream size : 82.5 MiB (12%)
Alignment : Aligned on interleaves
Interleave, duration : 42 ms (1.00 video frame)
Interleave, preload duration : 504 ms













   Похожие торренты   Торрент   Размер 
В этой теме нет новых непрочитанных сообщений. Возвращение на остров Ним / Return to Nim's Island (2013) HDRip | P

42 | 7

1.37 ГБ

В этой теме нет новых непрочитанных сообщений. Возвращение на таинственный остров / Return to Mysterious Island [v1.03] (2008) РС | Лицензия

0 | 0

1.26 ГБ

В этой теме нет новых непрочитанных сообщений. Оз: Возвращение в Изумрудный Город / Legends of Oz: Dorothy's Return (2013) HDRip | Чистый звук

2613 | 480

1.37 ГБ

В этой теме нет новых непрочитанных сообщений. Остров / The Island (2005) HDRip-AVC | D

155 | 7

1.46 ГБ

В этой теме нет новых непрочитанных сообщений. Остров / The Island (2005) HDRip-AVC | D

90 | 11

697.42 МБ

В этой теме нет новых непрочитанных сообщений. Остров / The Island (2005) HDRip | КПК | D

37 | 1

626.23 МБ

В этой теме нет новых непрочитанных сообщений. Остров / The Island (2005) HDRip-AVC | D

831 | 20

743.22 МБ




Вы не можете начинать темы
Вы не можете отвечать на сообщения
Вы не можете редактировать свои сообщения
Вы не можете удалять свои сообщения
Вы не можете добавлять вложения

Перейти:  
 Вход
ppkBB3cker v.2 © 2008-2014 @ PPK
[ Time : 0.025s | 19 Queries | GZIP : Off ]

cron