img image001 image001 image001 image001 image001 image001 image001 image001 image001 image001 image001 image001 image001 image001 image001 image001
Planets Sun Sun Sun
Статистика раздачи
Автор: Nickolas3434 | Размер: 1.9 ГБ | Добавлен: 16 апр 2015
Раздают: 187    Качают: 26
Скачать торрент
Скачать торрент
Описание торрента

СообщениеДобавлено: 16 апр 2015 


Информация о фильме
Название: Феникс
Оригинальное название: Phoenix
Год выхода: 2014
Жанр: драма, история
Режиссер: Кристиан Петцольд
В ролях: Нина Хосс, Рональд Церфельд, Нина Кунцендорф, Михаэль Мертенс, Имоген Когге, Керстен Блок, Уве Пройсс, Ева Бэй, Джефф Баррелл, София Эксс
О фильме:
Нелли Ленц, жертва Холокоста, которой удалось выжить в концлагере. Она ранена, у неё сильно искалечено лицо. Сотрудница Еврейского агентства Лене Винтер помогает Нелли добраться до Берлина, где ей сделали пластическую операцию. Поправившись после операции, Нелли начинает искать своего мужа, Йоханнса. Когда она наконец нашла его, Йоханнес не узнал свою жену, которую считает погибшей. Тем не менее, он признает, что эта незнакомая ему женщина похожа на его «покойную» жену. И тогда Йоханнес делает деловое предложение Нелли — она должна будет изображать его жену, чтобы получить состояние, которое ей досталось от семьи. Нелли соглашается…

Страна: Германия, Польша
Студия: ARTE LLC, Schramm Film Koerner & Weber, Westdeutscher Rundfunk (WDR)
Продолжительность: 01:38:00
Перевод: любительский (двуголосый закадровый) Студия Пиратского Дубляжа
Файл
Кодек: MPEG-4 AVC (MKV)
Качество: HDRip-AVC
Видео: AVC, 1024x432, 2000 Kbps
Звук: Русский / Немецкий: АС3, 6 ch, 384 kbps
Субтитры: нет

General
Unique ID : 192013805898401394252836992123234483318 (0x9074838BC66DD2E08DC0C64472E0FC76)
Complete name : G:ДИСК 2\01.ФИЛЬМЫФеникс Phoenix (2014)FeH1kC.2014.P.BDRip.720p_encoded.mkv
Format : Matroska
Format version : Version 2
File size : 1.90 GiB
Duration : 1h 38mn
Overall bit rate : 2 771 Kbps
Encoded date : UTC 2015-04-13 11:28:36
Writing application : XviD4PSP 6.0 / 54.29.105
Writing library : XviD4PSP 6.0 / 54.29.105
Video
ID : 1
Format : AVC
Format/Info : Advanced Video Codec
Format profile : High@L4.1
Format settings, CABAC : Yes
Format settings, ReFrames : 7 frames
Codec ID : V_MPEG4/ISO/AVC
Duration : 1h 38mn
Bit rate : 2 000 Kbps
Width : 1 024 pixels
Height : 432 pixels
Display aspect ratio : 2.40:1
Original display aspect ratio : 2.40:1
Frame rate mode : Constant
Frame rate : 24.000 fps
Color space : YUV
Chroma subsampling : 4:2:0
Bit depth : 8 bits
Scan type : Progressive
Bits/(Pixel*Frame) : 0.188
Stream size : 1.33 GiB (70%)
Writing library : x264 core 128 r2216M 198a7ea
Encoding settings : cabac=1 / ref=8 / deblock=1:-3:-3 / analyse=0x3:0x133 / me=umh / subme=8 / psy=0 / mixed_ref=1 / me_range=24 / chroma_me=1 / trellis=2 / 8x8dct=1 / cqm=0 / deadzone=21,11 / fast_pskip=1 / chroma_qp_offset=-2 / threads=4 / lookahead_threads=1 / sliced_threads=0 / nr=0 / decimate=1 / interlaced=0 / bluray_compat=0 / constrained_intra=0 / bframes=6 / b_pyramid=1 / b_adapt=0 / b_bias=0 / direct=3 / weightb=1 / open_gop=0 / weightp=0 / keyint=240 / keyint_min=23 / scenecut=40 / intra_refresh=0 / rc_lookahead=40 / rc=2pass / mbtree=1 / bitrate=2000 / ratetol=1.0 / qcomp=0.60 / qpmin=0 / qpmax=69 / qpstep=4 / cplxblur=20.0 / qblur=0.5 / ip_ratio=1.40 / aq=1:1.00
Language : English
Default : Yes
Forced : No
NUMBER_OF_BYTES : 2948443890
_STATISTICS_WRITING_APP : mkvmerge v7.6.0 ('Garden of Dreams') 32bit built on Feb 8 2015 12:51:39
_STATISTICS_WRITING_DATE_UTC : 2015-04-13 11:28:36
_STATISTICS_TAGS : BPS DURATION NUMBER_OF_FRAMES NUMBER_OF_BYTES
DURATION : 01:38:00.250000000
NUMBER_OF_FRAMES : 141126
Audio #1
ID : 2
Format : AC-3
Format/Info : Audio Coding 3
Mode extension : CM (complete main)
Format settings, Endianness : Big
Codec ID : A_AC3
Duration : 1h 38mn
Bit rate mode : Constant
Bit rate : 384 Kbps
Channel(s) : 6 channels
Channel positions : Front: L C R, Side: L R, LFE
Sampling rate : 48.0 KHz
Bit depth : 16 bits
Compression mode : Lossy
Delay relative to video : 27ms
Stream size : 269 MiB (14%)
Language : Russian
Default : Yes
Forced : No
_STATISTICS_TAGS : BPS DURATION NUMBER_OF_FRAMES NUMBER_OF_BYTES
DURATION : 01:38:00.256000000
NUMBER_OF_FRAMES : 183758
NUMBER_OF_BYTES : 282252288
_STATISTICS_WRITING_APP : mkvmerge v7.6.0 ('Garden of Dreams') 32bit built on Feb 8 2015 12:51:39
_STATISTICS_WRITING_DATE_UTC : 2015-04-13 11:28:36
Audio #2
ID : 3
Format : AC-3
Format/Info : Audio Coding 3
Mode extension : CM (complete main)
Format settings, Endianness : Big
Codec ID : A_AC3
Duration : 1h 38mn
Bit rate mode : Constant
Bit rate : 384 Kbps
Channel(s) : 6 channels
Channel positions : Front: L C R, Side: L R, LFE
Sampling rate : 48.0 KHz
Bit depth : 16 bits
Compression mode : Lossy
Delay relative to video : 27ms
Stream size : 269 MiB (14%)
Language : German
Default : Yes
Forced : No
NUMBER_OF_BYTES : 564506624
_STATISTICS_WRITING_APP : mkvmerge v7.6.0 ('Garden of Dreams') 32bit built on Feb 8 2015 12:51:39
_STATISTICS_WRITING_DATE_UTC : 2015-04-13 11:28:36
_STATISTICS_TAGS : BPS DURATION NUMBER_OF_FRAMES NUMBER_OF_BYTES
DURATION : 01:38:00.278000000
NUMBER_OF_FRAMES : 551276

Релиз от:



   Похожие торренты   Торрент   Размер 
В этой теме нет новых непрочитанных сообщений. Феникс / Phoenix (2014) HDRip | P

1161 | 53

1.46 ГБ

В этой теме нет новых непрочитанных сообщений. Феникс / Phoenix (2014) HDRip от AleksSin | L2

1356 | 80

1.45 ГБ

В этой теме нет новых непрочитанных сообщений. Феникс / Phoenix (2014) HDRip от AleksSin | L2

262 | 9

745.28 МБ

В этой теме нет новых непрочитанных сообщений. Феникс / Phoenix (2014) HDRip от Scarabey | L2

119 | 6

1.39 ГБ

В этой теме нет новых непрочитанных сообщений. Феникс / Phoenix (2014) HDRip от Scarabey | L2

112 | 14

743.04 МБ

В этой теме нет новых непрочитанных сообщений. Феникс 9 / Phoenix 9 (2014) WEB-DLRip-AVC | L2

26 | 0

340.35 МБ

В этой теме нет новых непрочитанных сообщений. Феникс / Phoenix (2014) ВDRip 720р | P

453 | 43

3.4 ГБ




Вы не можете начинать темы
Вы не можете отвечать на сообщения
Вы не можете редактировать свои сообщения
Вы не можете удалять свои сообщения
Вы не можете добавлять вложения

Перейти:  
 Вход
ppkBB3cker v.2 © 2008-2014 @ PPK
[ Time : 0.037s | 17 Queries | GZIP : Off ]

cron