img image001 image001 image001 image001 image001 image001 image001 image001 image001 image001 image001 image001 image001 image001 image001 image001

Planets Sun Sun Sun
Статистика раздачи
Автор: Nickolas3434 | Размер: 4.37 ГБ | Добавлен: 20 май 2015
Раздают: 74    Качают: 12
Скачать торрент
Скачать торрент
Описание торрента

СообщениеДобавлено: 20 май 2015 


Информация о фильме
    Название: Игра в четыре руки
    Оригинальное: Le Guignolo
    Год выхода: 1980
    Выпущено: Cerito Films, Gaumont International, Opera Film Produzione
    Страна: Франция, Италия
    Жанр: Боевик, комедия
    Продолжительность: 01:47:18
    Перевод: Дублированный, профессиональный многоголосый, авторский
    Режиссер: Жорж Лотнер
    В ролях: Жан-Поль Бельмондо, Мирелла Д'Анджело, Мишель Галабрю, Карла Романелли, Паоло Боначелли, Жорж Жере, Мишель Бон, Шарль Жерар, Морис Озель, Тони Кендалл, Ренцо Мариньяно, Альдо Рендине, Пьер Вернье, Анри Гибе, Мишель Беррер, Даниель Бретон, Филипп Кастелли, Ам-Чо Луон, Тхан-Лон, Жан Луизи, Лили Файоль, Давид Габисон, Анн Годде, Жак Рамад, Жан-Франсуа Кальве, Энцо Гуарини, Фон Гретчен Шепард, Дона Ли Кеслер




Сюжет фильма
    Специализация симпатичного афериста Александра Дюпре - богатые вдовушки, из которых он изящно выколачивает деньги, каждый раз выдавая себя за разных персонажей. Все шло гладко до того дня, когда он оказался втянутым... в дело о международном промышленном шпионаже, затрагивающем стратегические интересы Франции.


Файл
    Кодек: x264
    Формат: MKV
    Качество: BDRip 720p (Источник: Blu-ray)
    Видео: MPEG-4 AVC 1204x720 pix, 23.976 fps, 4746 kbps, 0.228 Bits/Pixel
    Аудио I: Dolby Digital 2.0 ch, 48 kHz, 192 kbps (DUB "USSR")
    Аудио II: Dolby Digital 2.0 ch, 48 kHz, 224 kbps (MVO "RUSCICO")
    Аудио III: Dolby Digital 2.0 ch, 48 kHz, 192 kbps (MVO "NTV+")
    Аудио IV: Dolby Digital 2.0 ch, 48 kHz, 224 kbps (AVO "Gavrilov")
    Аудио V: Dolby Digital 2.0 ch, 48 kHz, 256 kbps (FRE "Original")
    Субтитры: SRT Русские
    Меню: Сохранены оригинальные чаптеры Blu-ray

x264 [info]: frame I:1126 Avg QP:17.05 size:130703
x264 [info]: frame P:30830 Avg QP:19.93 size: 54189
x264 [info]: frame B:122412 Avg QP:22.01 size: 16350
x264 [info]: consecutive B-frames: 1.1% 1.0% 5.4% 17.9% 14.8% 55.8% 3.6% 0.4%
General
Unique ID : 246934955953102645346831676278030822267 (0xB9C5F14E245A5AA0884809A7D46D6B7B)
Format : Matroska
Format version : Version 2
File size : 4.37 GiB
Duration : 1h 47mn
Overall bit rate : 5 837 Kbps
Movie name : Игра в четыре руки (1980) BDRip (720p)
Encoded date : UTC 2015-05-19 16:11:18
Writing application : mkvmerge v5.8.0 ('No Sleep / Pillow') built on Sep 2 2012 15:37:04
Writing library : libebml v1.2.3 + libmatroska v1.3.0
Video
ID : 1
Format : AVC
Format/Info : Advanced Video Codec
Format profile : High@L4.1
Format settings, CABAC : Yes
Format settings, ReFrames : 8 frames
Codec ID : V_MPEG4/ISO/AVC
Duration : 1h 47mn
Bit rate : 4 746 Kbps
Width : 1 204 pixels
Height : 720 pixels
Display aspect ratio : 1.672
Frame rate mode : Constant
Frame rate : 23.976 fps
Color space : YUV
Chroma subsampling : 4:2:0
Bit depth : 8 bits
Scan type : Progressive
Bits/(Pixel*Frame) : 0.228
Stream size : 3.47 GiB (79%)
Title : Release by Alex260680
Writing library : x264 core 146 r2538 121396c
Encoding settings : cabac=1 / ref=8 / deblock=1:-3:-3 / analyse=0x3:0x133 / me=umh / subme=11 / psy=1 / psy_rd=1.00:0.00 / mixed_ref=1 / me_range=32 / chroma_me=1 / trellis=2 / 8x8dct=1 / cqm=0 / deadzone=21,11 / fast_pskip=0 / chroma_qp_offset=-2 / threads=6 / lookahead_threads=1 / sliced_threads=0 / nr=0 / decimate=0 / interlaced=0 / bluray_compat=0 / constrained_intra=0 / bframes=7 / b_pyramid=2 / b_adapt=2 / b_bias=0 / direct=3 / weightb=1 / open_gop=0 / weightp=2 / keyint=240 / keyint_min=23 / scenecut=40 / intra_refresh=0 / rc=full2pass / mbtree=0 / bitrate=4746 / ratetol=1.0 / qcomp=0.60 / qpmin=0 / qpmax=69 / qpstep=4 / cplxblur=20.0 / qblur=0.5 / ip_ratio=1.40 / pb_ratio=1.30 / aq=1:0.75
Language : French
Default : Yes
Forced : No
Audio #1
ID : 2
Format : AC-3
Format/Info : Audio Coding 3
Format profile : Dolby Digital
Mode extension : CM (complete main)
Format settings, Endianness : Big
Codec ID : A_AC3
Duration : 1h 47mn
Bit rate mode : Constant
Bit rate : 192 Kbps
Channel(s) : 2 channels
Channel positions : Front: L R
Sampling rate : 48.0 KHz
Bit depth : 16 bits
Compression mode : Lossy
Stream size : 147 MiB (3%)
Title : DUB (USSR)
Language : Russian
Default : Yes
Forced : No
Audio #2
ID : 3
Format : AC-3
Format/Info : Audio Coding 3
Mode extension : CM (complete main)
Format settings, Endianness : Big
Codec ID : A_AC3
Duration : 1h 47mn
Bit rate mode : Constant
Bit rate : 224 Kbps
Channel(s) : 2 channels
Channel positions : Front: L R
Sampling rate : 48.0 KHz
Bit depth : 16 bits
Compression mode : Lossy
Stream size : 172 MiB (4%)
Title : MVO (RUSCICO)
Language : Russian
Default : No
Forced : No
Audio #3
ID : 4
Format : AC-3
Format/Info : Audio Coding 3
Format profile : Dolby Digital
Mode extension : CM (complete main)
Format settings, Endianness : Big
Codec ID : A_AC3
Duration : 1h 47mn
Bit rate mode : Constant
Bit rate : 192 Kbps
Channel(s) : 2 channels
Channel positions : Front: L R
Sampling rate : 48.0 KHz
Bit depth : 16 bits
Compression mode : Lossy
Stream size : 147 MiB (3%)
Title : MVO (NTV+)
Language : Russian
Default : No
Forced : No
Audio #4
ID : 5
Format : AC-3
Format/Info : Audio Coding 3
Mode extension : CM (complete main)
Format settings, Endianness : Big
Codec ID : A_AC3
Duration : 1h 47mn
Bit rate mode : Constant
Bit rate : 224 Kbps
Channel(s) : 2 channels
Channel positions : Front: L R
Sampling rate : 48.0 KHz
Bit depth : 16 bits
Compression mode : Lossy
Stream size : 172 MiB (4%)
Title : AVO (Gavrilov)
Language : Russian
Default : No
Forced : No
Audio #5
ID : 6
Format : AC-3
Format/Info : Audio Coding 3
Mode extension : CM (complete main)
Format settings, Endianness : Big
Codec ID : A_AC3
Duration : 1h 47mn
Bit rate mode : Constant
Bit rate : 256 Kbps
Channel(s) : 2 channels
Channel positions : Front: L R
Sampling rate : 48.0 KHz
Bit depth : 16 bits
Compression mode : Lossy
Stream size : 196 MiB (4%)
Title : Original
Language : French
Default : No
Forced : No
Text
ID : 7
Format : UTF-8
Codec ID : S_TEXT/UTF8
Codec ID/Info : UTF-8 Plain Text
Title : Full
Language : Russian
Default : No
Forced : No
Menu
00:00:00.000 : en:Chapter 01
00:08:03.942 : en:Chapter 02
00:18:19.015 : en:Chapter 03
00:26:12.529 : en:Chapter 04
00:36:41.616 : en:Chapter 05
00:47:04.697 : en:Chapter 06
00:57:30.322 : en:Chapter 07
01:05:09.781 : en:Chapter 08
01:14:58.452 : en:Chapter 09
01:26:03.575 : en:Chapter 10
01:33:53.628 : en:Chapter 11
01:45:30.824 : en:Chapter 12

ЦитатаКто-то писал:
• Дорожки №2 и 4 получены наложением выделенных голосов на оригинал - DTS-HD MA



   Похожие торренты   Торрент   Размер 
В этой теме нет новых непрочитанных сообщений. Игра в четыре руки / Le Guignolo (1980) BDRip 1080p | D, P, A

126 | 12

7.76 ГБ

В этой теме нет новых непрочитанных сообщений. Игра в четыре руки / Le Guignolo (1980) BDRemux 1080p | D, P, P2, A

12 | 3

20.62 ГБ

В этой теме нет новых непрочитанных сообщений. Игра в классики / Hopscotch (1980) BDRip 720p от Koenig | A

28 | 3

7.31 ГБ

В этой теме нет новых непрочитанных сообщений. Красный райдинг 1980 / Red Riding 1980 (2009) BDRip 720p от Brazzass

68 | 44

4.02 ГБ

В этой теме нет новых непрочитанных сообщений. Игра в классики / Hopscotch (1980) DVDRip | A

57 | 10

1.37 ГБ

В этой теме нет новых непрочитанных сообщений. Игра в классики / Hopscotch (1980) HDRip-AVC | A

17 | 2

1.45 ГБ

В этой теме нет новых непрочитанных сообщений. Чистые руки / Schone Handen (2015) BDRip 720p | L2

251 | 19

4.52 ГБ




Вы не можете начинать темы
Вы не можете отвечать на сообщения
Вы не можете редактировать свои сообщения
Вы не можете удалять свои сообщения
Вы не можете добавлять вложения

Перейти:  
 Вход
ppkBB3cker v.2 © 2008-2014 @ PPK
[ Time : 0.032s | 17 Queries | GZIP : Off ]

cron