img image001 image001 image001 image001 image001 image001 image001 image001 image001 image001 image001 image001 image001 image001 image001 image001

Planets Sun Sun Sun
Статистика раздачи
Автор: Nickolas3434 | Размер: 4.37 ГБ | Добавлен: 24 май 2015
Раздают: 204    Качают: 18
Скачать торрент
Скачать торрент
Описание торрента

СообщениеДобавлено: 24 май 2015 

Оба: Последний самурай / Taiheiyou no kiseki: Fokkusu to yobareta otoko

Русское название: Оба: Последний самурай
Оригинальное название: Taiheiyou no kiseki: Fokkusu to yobareta otoko
Год выпуска: 2011
Жанр: драма, военный
Выпущено: Япония
Режиссер: Хидеюки Хираяма
В ролях: Ютака Такэноути , Шон Макгоун , Мао Иноэ , Дэниэл Болдуин , Трит Уильямс , Тосиаки Карасава , Садао Абэ , Мэттью Р. Андерсон , Расселл Джеффри Бэнкс , Бенгару , Йен Браун , Ллойд Бакли
Перевод: Авторский (одноголосый)

Сюжет фильма:
Идет лето 1944 года, гремит Вторая мировая война. Морские пехотинцы армии США ведут наступательную операцию на одном из крупнейших Северных Марианских островов Снайпе. после 3 недель кровопролитных боев, оборона гарнизона острова совсем ослабла. Верхушка командования войсками острова кончают с жизнью по старому японскому обычаю самураев. Лишь капитан Сакае Оба и его оставшиеся бойцы продолжают вести оборону. они взбираются на гору в центру острова и собираются стоять там до последнего.
Фильм основан на реальных событиях

Качество: BDRip 720p
Формат: AVC (библиотека кодирования x.264)
Контейнер (Расширение): MKV
Видео: 1280x544 (2.35:1), 4228 Кбит/сек, 23,976 кадр/сек, 0,253 Бит/[Пиксели*Кадры], full-2pass
Аудио: русский / AC3 / 5.1 / 48 kHz / 640 kbps / |Авторский, Д.Есарев|
Субтитры: русские
Продолжительность: 02:08:33
Автор рипа: Сообщество:

Format : Matroska
Format version : Version 2
File size : 4.37 GiB
Duration : 2h 8mn
Overall bit rate : 4 869 Kbps
Movie name : Oba: Poslednij samuraj.(2011).BDRip.720p.[denis100]
Encoded date : UTC 2015-05-23 08:53:34
Writing application : mkvmerge v5.8.0 ('No Sleep / Pillow') built on Sep 2 2012 15:37:04
Writing library : libebml v1.2.3 + libmatroska v1.3.0
Video
ID : 1
Format : AVC
Format/Info : Advanced Video Codec
Format profile : High@L4.1
Format settings, CABAC : Yes
Format settings, ReFrames : 11 frames
Codec ID : V_MPEG4/ISO/AVC
Duration : 2h 8mn
Bit rate : 4 228 Kbps
Width : 1 280 pixels
Height : 544 pixels
Display aspect ratio : 2.35:1
Frame rate : 23.976 fps
Color space : YUV
Chroma subsampling : 4:2:0
Bit depth : 8 bits
Scan type : Progressive
Bits/(Pixel*Frame) : 0.253
Stream size : 3.71 GiB (85%)
Title : Oba: Poslednij samuraj.(2011).BDRip.720p.[denis100]
Writing library : x264 core 146 r2538 121396c
Encoding settings : cabac=1 / ref=11 / deblock=1:-3:-3 / analyse=0x3:0x133 / me=umh / subme=11 / psy=1 / psy_rd=1.00:0.00 / mixed_ref=1 / me_range=32 / chroma_me=1 / trellis=2 / 8x8dct=1 / cqm=0 / deadzone=21,11 / fast_pskip=0 / chroma_qp_offset=-2 / threads=6 / lookahead_threads=1 / sliced_threads=0 / nr=0 / decimate=1 / interlaced=0 / bluray_compat=0 / constrained_intra=0 / bframes=8 / b_pyramid=2 / b_adapt=2 / b_bias=0 / direct=3 / weightb=1 / open_gop=0 / weightp=2 / keyint=240 / keyint_min=23 / scenecut=40 / intra_refresh=0 / rc=2pass / mbtree=0 / bitrate=4228 / ratetol=1.0 / qcomp=0.60 / qpmin=0 / qpmax=69 / qpstep=4 / cplxblur=20.0 / qblur=0.5 / ip_ratio=1.40 / pb_ratio=1.30 / aq=1:1.00
Language : English
Default : Yes
Forced : No
Audio
ID : 2
Format : AC-3
Format/Info : Audio Coding 3
Mode extension : CM (complete main)
Codec ID : A_AC3
Duration : 2h 8mn
Bit rate mode : Constant
Bit rate : 640 Kbps
Channel(s) : 6 channels
Channel positions : Front: L C R, Side: L R, LFE
Sampling rate : 48.0 KHz
Bit depth : 16 bits
Compression mode : Lossy
Stream size : 589 MiB (13%)
Title : Авторский, Д.Есарев
Language : Russian
Default : Yes
Forced : No
Text
ID : 3
Format : UTF-8
Codec ID : S_TEXT/UTF8
Codec ID/Info : UTF-8 Plain Text
Language : Russian
Default : No
Forced : No



   Похожие торренты   Торрент   Размер 
В этой теме нет новых непрочитанных сообщений. Последний самурай / The Last Samurai (2003) BDRip 720p от NNNB | 60 fps

411 | 27

5.34 ГБ

В этой теме нет новых непрочитанных сообщений. Последний самурай / The Last Samurai (2003) BDRip 720p

17 | 0

9.37 ГБ

В этой теме нет новых непрочитанных сообщений. Радиосигналы от Чудачки. Юноша на Связи / Denpa Onna to Seishun Otoko [01-12 из 12 + спешл] (2011) BDRip 720p | SHIZA Project

39 | 18

3.52 ГБ

В этой теме нет новых непрочитанных сообщений. Чудо / Я желаю / Kiseki (2011) BDRip-AVC от MediaClub | L1

0 | 3

3.1 ГБ

В этой теме нет новых непрочитанных сообщений. Последний самурай / The Last Samurai (2003) BDRip от MediaClub | КПК

150 | 6

697.64 МБ

В этой теме нет новых непрочитанных сообщений. Последний охотник на ведьм / The Last Witch Hunter (2015) BDRip 720p от NNNB | 60 fps

1287 | 81

4.96 ГБ

В этой теме нет новых непрочитанных сообщений. Трансформеры: Последний рыцарь / Transformers: The Last Knight (2017) BDRip 720p от NNNB | IMAX | 60 fps | Лицензия

74 | 5

9.07 ГБ




Вы не можете начинать темы
Вы не можете отвечать на сообщения
Вы не можете редактировать свои сообщения
Вы не можете удалять свои сообщения
Вы не можете добавлять вложения

Перейти:  
 Вход
ppkBB3cker v.2 © 2008-2014 @ PPK
[ Time : 0.044s | 16 Queries | GZIP : Off ]

cron