img image001 image001 image001 image001 image001 image001 image001 image001 image001 image001 image001 image001 image001 image001 image001

Planets Sun Sun Sun
Статистика раздачи
Автор: Nickolas3434 | Размер: 7.75 ГБ | Добавлен: 22 июн 2015
Раздают: 69    Качают: 3
Скачать торрент
Скачать торрент
Описание торрента

СообщениеДобавлено: 22 июн 2015 


Информация о фильме
    Русское название: Клоуны-убийцы из космоса
    Оригинальное название: Killer Klowns from Outer Space
    Год выхода: 1988
    Жанр: фантастика, комедия, ужасы
    Режиссер: Стивен Чиодо
    Выпущено: США
    Продолжительность: 01:26:10
    Перевод: Авторский (одноголосый, закадровый)
    В ролях: Грант Крамер, Сюзанн Снайдер, Джон Аллен Нельсон, Джон Вернон, Майкл Сигел, Питер Ликасси, Ройал Дэно, Кристофер Титус, Ирен Майклс, Карла Сью Крулл


Сюжет фильма
    Парочка влюбленных замечает в небе летящий объект, траектория падения которого явно указывает на близлежащий лес. Желая посмотреть на упавший метеорит, парочка отправляется на предполагаемое место падения и обнаруживает там цирковой шатер, в котором к нам на Землю прилетели клоуны-убийцы из космоса! Их цель — заготовить как можно больше землян в качестве… провианта.


Файл
    Качество: BDRip 1080p (исходник Blu-ray Disc Remux)
    Видео: 1916x1040, 12505 Кбит/сек, 23,976 кадр/сек, AVC, x264, High@L4.1, 1.85:1, 0.262 Бит/[Пиксели*Кадры]
    Аудио 1: AC-3, 192 Кбит/сек, 2 канала(ов), 48,0 КГц - Одноголосый закадровый, А.Кашкин (Первомайский) / Русский
    Аудио 2: AC-3, 192 Кбит/сек, 2 канала(ов), 48,0 КГц - Дублированный / Русский
    Субтитры: Английские
    Форсированные субтитры: Нет
    Чаптеры (Главы): Есть



Автор Рипа: Сообщество:



Format : Matroska
Format version : Version 2
File size : 7.75 GiB
Duration : 1h 26mn
Overall bit rate : 12.9 Mbps
Movie name : Клоуны-убийцы из космоса.(1988).BDRip.1080p.[envy]
Encoded date : UTC 2015-06-21 04:09:55
Writing application : mkvmerge v5.8.0 ('No Sleep / Pillow') built on Sep 2 2012 15:37:04
Writing library : libebml v1.2.3 + libmatroska v1.3.0
Video
ID : 1
Format : AVC
Format/Info : Advanced Video Codec
Format profile : High@L4.1
Format settings, CABAC : Yes
Format settings, ReFrames : 4 frames
Codec ID : V_MPEG4/ISO/AVC
Duration : 1h 26mn
Bit rate : 12.5 Mbps
Width : 1 916 pixels
Height : 1 040 pixels
Display aspect ratio : 1.85:1
Frame rate mode : Constant
Frame rate : 23.976 fps
Color space : YUV
Chroma subsampling : 4:2:0
Bit depth : 8 bits
Scan type : Progressive
Bits/(Pixel*Frame) : 0.262
Stream size : 7.37 GiB (95%)
Title : Клоуны-убийцы из космоса.(1988).BDRip.1080p.[envy]
Writing library : x264 core 146 r2538 121396c
Encoding settings : cabac=1 / ref=4 / deblock=1:-3:-3 / analyse=0x3:0x133 / me=umh / subme=11 / psy=1 / psy_rd=1.00:0.00 / mixed_ref=1 / me_range=32 / chroma_me=1 / trellis=2 / 8x8dct=1 / cqm=0 / deadzone=21,11 / fast_pskip=0 / chroma_qp_offset=-2 / threads=12 / lookahead_threads=2 / sliced_threads=0 / nr=0 / decimate=1 / interlaced=0 / bluray_compat=0 / constrained_intra=0 / bframes=8 / b_pyramid=2 / b_adapt=2 / b_bias=0 / direct=3 / weightb=1 / open_gop=0 / weightp=2 / keyint=240 / keyint_min=23 / scenecut=40 / intra_refresh=0 / rc=2pass / mbtree=0 / bitrate=12505 / ratetol=2.0 / qcomp=0.60 / qpmin=0 / qpmax=69 / qpstep=4 / cplxblur=20.0 / qblur=0.5 / ip_ratio=1.40 / pb_ratio=1.30 / aq=2:0.90
Language : English
Default : Yes
Forced : No
Audio #1
ID : 2
Format : AC-3
Format/Info : Audio Coding 3
Mode extension : CM (complete main)
Format settings, Endianness : Big
Codec ID : A_AC3
Duration : 1h 26mn
Bit rate mode : Constant
Bit rate : 192 Kbps
Channel(s) : 2 channels
Channel positions : Front: L R
Sampling rate : 48.0 KHz
Bit depth : 16 bits
Compression mode : Lossy
Stream size : 118 MiB (1%)
Title : AVO Kashkin
Default : Yes
Forced : No
Audio #2
ID : 3
Format : AC-3
Format/Info : Audio Coding 3
Mode extension : CM (complete main)
Format settings, Endianness : Big
Codec ID : A_AC3
Duration : 1h 26mn
Bit rate mode : Constant
Bit rate : 192 Kbps
Channel(s) : 2 channels
Channel positions : Front: L R
Sampling rate : 48.0 KHz
Bit depth : 16 bits
Compression mode : Lossy
Stream size : 118 MiB (1%)
Title : Eng
Language : English
Default : No
Forced : No
Text
ID : 4
Format : UTF-8
Codec ID : S_TEXT/UTF8
Codec ID/Info : UTF-8 Plain Text
Title : Eng full
Language : English
Default : No
Forced : No
Menu
00:00:00.000 : en:
00:04:41.906 : en:
00:09:50.131 : en:
00:16:21.605 : en:
00:18:54.216 : en:
00:20:08.582 : en:
00:30:58.398 : en:
00:34:10.673 : en:
00:39:43.297 : en:
00:47:52.619 : en:
00:55:45.633 : en:
01:02:33.166 : en:
01:08:35.152 : en:
01:13:23.315 : en:
01:15:30.567 : en:
01:21:18.373 : en:


#77



   Похожие торренты   Торрент   Размер 
В этой теме нет новых непрочитанных сообщений. Клоуны-убийцы из космоса / Killer Klowns from Outer Space (1988) BDRip | А

0 | 3

1.45 ГБ

В этой теме нет новых непрочитанных сообщений. Клоуны-убийцы из космоса / Killer Klowns from Outer Space (1988) BDRip | L1

77 | 19

2.05 ГБ

В этой теме нет новых непрочитанных сообщений. Клоуны-убийцы из космоса / Killer Klowns from Outer Space (1988) BDRip от HQCLUB

12 | 4

1.45 ГБ

В этой теме нет новых непрочитанных сообщений. Клоуны-убийцы из космоса / Killer Klowns from Outer Space (1988) DVDRip

0 | 3

1.37 ГБ

В этой теме нет новых непрочитанных сообщений. Клоуны-убийцы из космоса / Killer Klowns from Outer Space (1988) HDTV 720p от Brazzass

17 | 3

1.97 ГБ

В этой теме нет новых непрочитанных сообщений. Это прибыло из космоса / It Came from Outer Space (1953) BDRip 1080p от Ash61 | 3D-Video | halfOU | P

0 | 0

8.24 ГБ

В этой теме нет новых непрочитанных сообщений. Кот из космоса / The Cat from Outer Space (1978) DVDRip | L2

44 | 3

1.45 ГБ




Вы не можете начинать темы
Вы не можете отвечать на сообщения
Вы не можете редактировать свои сообщения
Вы не можете удалять свои сообщения
Вы не можете добавлять вложения

Перейти:  
Для Мосгорсуда, Роскомнадзора и рекламодателей: mosgorsud-torrent[собачка]yandex.ru
 Вход
ppkBB3cker v.2 © 2008-2014 @ PPK
[ Time : 0.056s | 19 Queries | GZIP : Off ]

cron