img image001 image001 image001 image001 image001 image001 image001 image001 image001 image001 image001 image001 image001 image001 image001 image001

Planets Sun Sun Sun
Статистика раздачи
Автор: Nickolas3434 | Размер: 6.92 ГБ | Добавлен: 06 июл 2015
Раздают: 107    Качают: 12
Скачать торрент
Скачать торрент
Описание торрента

СообщениеДобавлено: 06 июл 2015 

Информация о фильме
Название: Дети шпионов
Оригинальное название: Spy Kids
Год выхода: 2001
Жанр: фантастика, боевик, комедия, приключения, семейный
Режиссер: Роберт Родригес
В ролях: Антонио Бандерас, Карла Гуджино, Алекса ПенаВега, Дэрил Сабара, Алан Камминг, Тони Шэлуб, Тери Хэтчер, Чич Марин, Роберт Патрик, Дэнни Трехо
О фильме:
Два самых крутых шпиона в мире: Грегорио Кортес и Ингрид, имели одно и то же секретное задание — уничтожить друг друга. Но личная встреча не принесла им ничего хорошего: они поженились и завязали со своим ремеслом… Через несколько лет исчезновение семерых спецагентов вынуждает их снова вернуться в игру. Причиной послужило то, что их бывшие коллеги, самые крутые профессионалы, начали исчезать один за другим.
Кортесы вновь нужны агентству, которое хочет, чтобы они раскрыли секреты некоего Пальчика, формирующего армию из детей-роботов. Участь исчезновения постигает и супругов Кортесов, их похищает коварный злодей. Теперь судьба пленников зависит от того, смогут ли их дети правильно распорядиться всеми новейшими сверхсекретными шпионскими штучками из арсенала легендарных родителей.
#77


Страна: США
Студия: Dimension Films, Troublemaker Studios
Продолжительность: 84 мин. / 01:24
Перевод: полное дублирование

Файл
Кодек: MPEG2
Качество: DVD9 "West Video"
Видео: PAL 16:9 (720x576@1024x576) CBR 8500 Kbps, 25.000 fps
Аудио: Dolby AC3, 6 ch, 48.0 KHz, 448 Кbps (русский, английский)
Субтитры: русские

[*]ВидеороликКинороликРассказ о съемкахСоздание фильмаФильмографии
Общее
Полное имя : D:deti_shpionovVIDEO_TSVTS_02_1.VOB
Формат : MPEG-PS
Размер файла : 1024 Мбайт
Продолжительность : 14 м.
Общий поток : 9548 Кбит/сек
Видео
Идентификатор : 224 (0xE0)
Формат : MPEG Video
Версия формата : Version 2
Профиль формата : Main@Main
Параметр BVOP формата : Да
Параметр матрицы формата : По умолчанию
Параметр GOP формата : M=3, N=4
Структура изображения : Frame
Продолжительность : 14 м.
Битрейт : 8500 Кбит/сек
Ширина : 720 пикселей
Высота : 576 пикселей
Соотношение сторон : 2,40:1
Частота кадров : 25,000 кадров/сек
Стандарт вещания : PAL
Цветовое пространство : YUV
Субдискретизация насыщенности : 4:2:0
Битовая глубина : 8 бит
Тип развёртки : Чересстрочная
Порядок развёртки : Верхнее поле первое
Метод сжатия : С потерями
Бит/(Пиксели*Кадры) : 0.820
Временной код первого кадра : 00:59:59:08
Оригинал временного кода : Group of pictures header
GOP, открыто/закрыто : Открыто
Размер потока : 908 Мбайт (89%)
Основные цвета : BT.601 PAL
Характеристики трансфера : BT.470 System B, BT.470 System G
Коэффициенты матрицы : BT.601
Аудио #1
Идентификатор : 189 (0xBD)-128 (0x80)
Формат : AC-3
Формат/Информация : Audio Coding 3
Расширение режима : CM (complete main)
Параметр Endianness формата : Big
Режим смешивания : DVD-Video
Продолжительность : 14 м.
Вид битрейта : Постоянный
Битрейт : 448 Кбит/сек
Каналы : 6 каналов
Расположение каналов : Front: L C R, Side: L R, LFE
Частота : 48,0 КГц
Метод сжатия : С потерями
Задержка видео : 16 мс.
Размер потока : 48,0 Мбайт (5%)
Аудио #2
Идентификатор : 189 (0xBD)-129 (0x81)
Формат : AC-3
Формат/Информация : Audio Coding 3
Расширение режима : CM (complete main)
Параметр Endianness формата : Big
Режим смешивания : DVD-Video
Продолжительность : 14 м.
Вид битрейта : Постоянный
Битрейт : 448 Кбит/сек
Каналы : 6 каналов
Расположение каналов : Front: L C R, Side: L R, LFE
Частота : 48,0 КГц
Метод сжатия : С потерями
Задержка видео : 16 мс.
Размер потока : 48,0 Мбайт (5%)
Текст #1
Идентификатор : 189 (0xBD)-32 (0x20)
Формат : RLE
Формат/Информация : Run-length encoding
Режим смешивания : DVD-Video
Текст #2
Идентификатор : 189 (0xBD)-33 (0x21)
Формат : RLE
Формат/Информация : Run-length encoding
Режим смешивания : DVD-Video
Текст #3
Идентификатор : 189 (0xBD)-34 (0x22)
Формат : RLE
Формат/Информация : Run-length encoding
Режим смешивания : DVD-Video
Меню




   Похожие торренты   Торрент   Размер 
В этой теме нет новых непрочитанных сообщений. Дети шпионов 3: Игра окончена / Spy Kids 3-D: Game Over (2003) DVD9 | D

23 | 7

6.71 ГБ

В этой теме нет новых непрочитанных сообщений. Дети шпионов / Spy Kids (2001) BDRip 1080p от NNNB

23 | 8

7.75 ГБ

В этой теме нет новых непрочитанных сообщений. Дети шпионов : Трилогия / Spy Kids : Trilogy (2001-2003) BDRip-AVC от R.G. HD-Films | 60 fps

151 | 32

10.73 ГБ

В этой теме нет новых непрочитанных сообщений. Дети шпионов 2: Остров несбывшихся надежд / Spy Kids 2: Island of Lost Dreams (2002) DVD9+DVD5 | D

34 | 4

8.05 ГБ

В этой теме нет новых непрочитанных сообщений. Хорошие дети / Good Kids (2016) HDRip | L

45 | 6

1.37 ГБ

В этой теме нет новых непрочитанных сообщений. Хорошие дети / Good Kids (2016) BDRip | L

92 | 2

1.45 ГБ

В этой теме нет новых непрочитанных сообщений. Дети свинга / Swing Kids (1993) WEB-DL 720p | P2

85 | 2

3.7 ГБ




Вы не можете начинать темы
Вы не можете отвечать на сообщения
Вы не можете редактировать свои сообщения
Вы не можете удалять свои сообщения
Вы не можете добавлять вложения

Перейти:  
 Вход
ppkBB3cker v.2 © 2008-2014 @ PPK
[ Time : 0.023s | 16 Queries | GZIP : Off ]

cron