img image001 image001 image001 image001 image001 image001 image001 image001 image001 image001 image001 image001 image001 image001 image001 image001

Planets Sun Sun Sun
Статистика раздачи
Автор: Nickolas3434 | Размер: 1.46 ГБ | Добавлен: 26 июл 2015
Раздают: 153    Качают: 7
Скачать торрент
Скачать торрент
Описание торрента

СообщениеДобавлено: 26 июл 2015 


Информация о фильме
Название: Остров сокровищ
Оригинальное название: Treasure Island
Год выхода: 1990
Жанр: приключения
Режиссер: Фрейзер Кларк Хестон / Fraser Clarke Heston
В ролях: Чарлтон Хестон, Кристиан Бэйл, Оливер Рид, Кристофер Ли, Ричард Джонсон, Джулиан Гловер, Айла Блэр, Клив Вуд, Николас Амер, Джон Эбботт, Джеймс Койл, Майкл Халсли, Майкл Тома, Пит Постлетуэйт, Роберт Патт, Бретт Фэнси, Джон Бенфилд, Ричард Бил, Стивен Макинтош, Джеймс Космо, Билл Слоун, Дэвид Спид
О фильме:
Экранизация всемирно известного романа шотландского писателя Роберта Льюиса Стивенсона. Совершенно случайно в руки смелого Джима Хокинса попадает старинная морская карта, которая оказывается картой самого легендарного капитана Флинта. На ней указаны координаты острова в Атлантическом океане, где спрятаны сокровища знаменитого пирата. Вместе с бесстрашными друзьями, доктором Ливси и сквайром Трелони, на шхуне «Испаньола» Джим отправляется в опасное плавание к далекому острову. Но случилось так, что на этом же судне в плавание отправились и пираты — бывшие члены команды капитана Флинта. Во главе шайки стоит Джон Сильвер - коварный и кровожадный пират, который прикинулся скромным корабельным коком...

Страна: США, Великобритания
Продолжительность: 02:11:17
Перевод: Профессиональный (дублированный) Варус Видео
Файл
Кодек: XviD
Качество: WEB-DLRip
Видео: 688x384, 23,976 fps, 1394 kbps
Звук: AC3, 48 kHz, 2ch, 192 kbps
Общее
Полное имя : Treasure.Island.by_rohh.1990.WEB-DLRip.avi
Формат : AVI
Формат/Информация : Audio Video Interleave
Размер файла : 1,46 Гбайт
Продолжительность : 2 ч. 11 м.
Общий поток : 1595 Кбит/сек
Программа кодирования : VirtualDubMod 1.5.10.2 (build 2542/release)
Библиотека кодирования : VirtualDubMod build 2542/release
Видео
Идентификатор : 0
Формат : MPEG-4 Visual
Профиль формата : Advanced Simple@L5
Параметр BVOP формата : 2
Параметр QPel формата : Нет
Параметр GMC формата : Без точки перехода
Параметр матрицы формата : Выборочная
Идентификатор кодека : XVID
Идентификатор кодека/Подсказка : XviD
Продолжительность : 2 ч. 11 м.
Битрейт : 1394 Кбит/сек
Ширина : 688 пикс.
Высота : 384 пикс.
Соотношение сторон : 16:9
Частота кадров : 23,976 кадр/сек
Цветовое пространство : YUV
Подвыборка цветности : 4:2:0
Битовая глубина : 8 бит
Тип развёртки : Прогрессивная
Метод сжатия : С потерями
Бит/(Пиксели*Кадры) : 0.220
Размер потока : 1,28 Гбайт (87%)
Библиотека кодирования : XviD 73
Аудио
Идентификатор : 1
Формат : AC-3
Формат/Информация : Audio Coding 3
Расширение режима : CM (complete main)
Идентификатор кодека : 2000
Продолжительность : 2 ч. 11 м.
Вид битрейта : Постоянный
Битрейт : 192 Кбит/сек
Канал(ы) : 2 канала(ов)
Расположение каналов : Front: L R
Частота : 48,0 КГц
Битовая глубина : 16 бит
Метод сжатия : С потерями
Размер потока : 180 Мбайт (12%)
Выравнивание : Разделение по промежуткам
Продолжительность промежутка : 42 мс. (1,00 видеокадр)
Время предзагрузки промежутка : 500 ms

Релиз от: Leon-masl



   Похожие торренты   Торрент   Размер 
В этой теме нет новых непрочитанных сообщений. Остров сокровищ / Treasure Island (1990) WEB-DLRip-AVC | D

5 | 0

745.45 МБ

В этой теме нет новых непрочитанных сообщений. Остров сокровищ / Treasure Island (1990) WEB-DL 720p | D, P, A

94 | 11

4.79 ГБ

В этой теме нет новых непрочитанных сообщений. Остров сокровищ Робинзона Крузо / Robinson Crusoe's Treasure Island (2011) WEB-DLRip-AVC от OlLanDGroup | P1

20 | 0

1.44 ГБ

В этой теме нет новых непрочитанных сообщений. В поисках сокровищ: змеиный остров / Discovery. Treasure Quest: Snake Island [01] (2015) HDTVRip от HitWay | P1

56 | 2

548.13 МБ

В этой теме нет новых непрочитанных сообщений. Discovery. В поисках сокровищ: змеиный остров / Treasure Quest: Snake Island [01-04] (2015) HDTVRip от HitWay | P1

38 | 13

2.14 ГБ

В этой теме нет новых непрочитанных сообщений. Discovery. В поисках сокровищ: змеиный остров / Treasure Quest: Snake Island [01-04] (2015) HDTVRip от HitWay | P1

78 | 16

3.21 ГБ

В этой теме нет новых непрочитанных сообщений. В поисках сокровищ: змеиный остров / Discovery. Treasure Quest: Snake Island [01] (2015) HDTVRip от HitWay | P1

41 | 16

1.61 ГБ




Вы не можете начинать темы
Вы не можете отвечать на сообщения
Вы не можете редактировать свои сообщения
Вы не можете удалять свои сообщения
Вы не можете добавлять вложения

Перейти:  
 Вход
ppkBB3cker v.2 © 2008-2014 @ PPK
[ Time : 1.363s | 15 Queries | GZIP : Off ]

cron