img image001 image001 image001 image001 image001 image001 image001 image001 image001 image001 image001 image001 image001 image001 image001

Planets Sun Sun Sun
Статистика раздачи
Автор: Снежана | Размер: 742.69 МБ | Добавлен: 21 июл 2013
Раздают: 12    Качают: 2
Скачать торрент
Скачать торрент
Описание торрента

СообщениеДобавлено: 21 июл 2013 

#77

Информация о фильме
Название: Любовник леди Чаттерлей
Оригинальное название: Lady Chatterley's Lover
Год выхода: 1981
Жанр: драма, мелодрама
Режиссер: Жюст Жакен / Just Jaekin
В ролях: Сильвия Кристель /Sylvia Kristel/, Николас Клэй /Nicholas Clay/, Шэйн Брайант /Shane Briant/, Питер Беннет, Энн Митчелл /Ann Mitchell/, Элизабет Сприггс /Elizabeth Spriggs/, Бесси Лав /Bessie Love/

О фильме:
В результате ранения на англо-германской войне сэр Клиффорд Чаттерлей был частично парализован и был вынужден отныне передвигаться на коляске. Это его состояние делало невозможными нормальные сексуальные отношения с молодой красавицей женой Констанс.

Конни (так ласково называл жену Чаттерлей) любила мужа и была готова сохранять ему верность, ухаживая за инвалидом. Понимая, что существование молодой женщины без секса ненормально, сэр Клиффорд благородно разрешил ей, если найдётся подходящий мужчина, завести любовника. Он даже был согласен дать ребёнку своё имя, если жена забеременеет. Но произошло то, чего сэр Чаттерлей ожидать никак не мог. Его Конни влюбилась в лесника Оливера Мэллорса.

Страна: Франция, Великобритания, Германия (ФРГ)
Продолжительность: 01:44:01
Перевод: Профессиональный (многоголосый, закадровый) [5-й канал]

Файл
Кодек: XviD / MP3
Качество: BDRip
Видео: XviD, 624x336 (1.857), 23.976 fps, 861 Kbps (0.171 bit/pixel)
Звук: MP3, 48.0 KHz, 2 ch, 128 Kbps, CBR

General
Complete name : E:Lady.Chatterley's.Lover_HDRip_745_[Rutor.org].avi
Format : AVI
Format/Info : Audio Video Interleave
File size : 743 MiB
Duration : 1h 44mn
Overall bit rate : 998 Kbps
Writing application : VirtualDubMod 1.5.10.2 (build 2540/release)
Writing library : VirtualDubMod build 2540/release

Video
ID : 0
Format : MPEG-4 Visual
Format profile : Advanced Simple@L5
Format settings, BVOP : 1
Format settings, QPel : No
Format settings, GMC : No warppoints
Format settings, Matrix : Custom
Codec ID : XVID
Codec ID/Hint : XviD
Duration : 1h 44mn
Bit rate : 861 Kbps
Width : 624 pixels
Height : 336 pixels
Display aspect ratio : 1.857
Frame rate : 23.976 fps
Color space : YUV
Chroma subsampling : 4:2:0
Bit depth : 8 bits
Scan type : Progressive
Compression mode : Lossy
Bits/(Pixel*Frame) : 0.171
Stream size : 641 MiB (86%)
Writing library : XviD 1.2.1 (UTC 2008-12-04)

Audio
ID : 1
Format : MPEG Audio
Format version : Version 1
Format profile : Layer 3
Codec ID : 55
Codec ID/Hint : MP3
Duration : 1h 44mn
Bit rate mode : Constant
Bit rate : 128 Kbps
Channel(s) : 2 channels
Sampling rate : 48.0 KHz
Compression mode : Lossy
Stream size : 95.2 MiB (13%)
Alignment : Aligned on interleaves
Interleave, duration : 42 ms (1.00 video frame)
Interleave, preload duration : 504 ms
Writing library : LAME3.97
Encoding settings : -m s -V 4 -q 2 -lowpass 17 -b 128




   Похожие торренты   Торрент   Размер 
В этой теме нет новых непрочитанных сообщений. Любовник Леди Чаттерлей / Lady Chatterley's Lover (1981) BDRip от HQCLUB

3 | 34

1.45 ГБ

В этой теме нет новых непрочитанных сообщений. Любовник Леди Чаттерлей / Lady Chatterley's Lover (1981) BDRip от olegek70

30 | 13

1.46 ГБ

В этой теме нет новых непрочитанных сообщений. Любовник Леди Чаттерлей / Lady Chatterley's Lover (1981) BDRip 1080p by msltel | P

8 | 3

11.46 ГБ

В этой теме нет новых непрочитанных сообщений. Любовник Леди Чаттерлей / Lady Chatterley's Lover (1981) BDRip 1080p от Freeisland

10 | 30

4.37 ГБ

В этой теме нет новых непрочитанных сообщений. Любовник Леди Чаттерлей / Lady Chatterley's Lover (1981) BDRip 720p by msltel | P

11 | 4

5.76 ГБ

В этой теме нет новых непрочитанных сообщений. Любовник Леди Чаттерлей / Lady Chatterley's Lover (1981) DVDRip

7 | 32

911.92 МБ

В этой теме нет новых непрочитанных сообщений. Любовник Леди Чаттерлей / Lady Chatterley's Lover (1981) BDRemux

1 | 26

20.13 ГБ




Вы не можете начинать темы
Вы не можете отвечать на сообщения
Вы не можете редактировать свои сообщения
Вы не можете удалять свои сообщения
Вы не можете добавлять вложения

Перейти:  
Для Мосгорсуда, Роскомнадзора и рекламодателей: mosgorsud-torrent[собачка]yandex.ru
 Вход
ppkBB3cker v.2 © 2008-2014 @ PPK
[ Time : 0.041s | 14 Queries | GZIP : Off ]

Торрент трекер RUTOR.IN, Не можете зайти на rutor.org? Какой новый адрес рутор? Какое зеркало рутор? Не работает rutor.org и зеркала? Тогда наш торрент специально для вас. Rutor.in неофициальное зеркало rutor. В случае если у Вас заблокирован rutor или вдруг Вы не можете на него зайти, то Вы без труда сможете скачать бесплатно и без рекламы последние новинки кино, игр, сериалов и прочего у нас, на Rutor.in. Не нужно использовать прокси, чтобы зайти на рутор, достаточно воспользоваться нашим ресурсом. Все новые фильмы, игры, сериалы, книги и музыка за 2013 и 2014 годы через торрент бесплатно. Скачивайте фильмы в хорошем качестве, игры для пк, xbox, playstation без регистрации. У нас вы найдете новые Зарубежные сериалы и Русские сериалы 2013, 2014, 2015 годов. Оставайтесь с нами, качайте любимые фильмы, игры, сериалы, книги и музыку.