img image001 image001 image001 image001 image001 image001 image001 image001 image001 image001 image001 image001 image001 image001 image001 image001

Planets Sun Sun Sun
Статистика раздачи
Автор: Nickolas3434 | Размер: 1.46 ГБ | Добавлен: 04 авг 2015
Раздают: 173    Качают: 32
Скачать торрент
Скачать торрент
Описание торрента

СообщениеДобавлено: 04 авг 2015 

Миссия невыполнима 2 / Mission:Impossible 2 (2000) HDRip

Информация о фильме
Название: Миссия: невыполнима 2
Оригинальное название: Mission: Impossible II
Производство: США
Жанр: Боевик, Триллер, Приключения
Продолжительность: 02:03:35
Перевод: Авторский (одноголосый, закадровый) А.Гаврилов
Субтитры: отсутствуют
Режиссер: Джон Ву
Актеры: Том Круз, Дюгрэй Скотт, Тэнди Ньютон, Винг Реймз, Ричард Роксбург, Джон Полсон, Брендан Глисон, Раде Шербеджия, Уильям Мапотер, Доминик Пурселл
Описание:
Русский ученый - доктор Владимир Нехорович, работая над лекарством от всех видов гриппа, изобрел вирус "Химера", который убивает человека в течении суток. Одновременно с этим он создал и антивирус "Беллерафонте". Об этом становится известно Шону Амброзу, и он завладевает антивирусом в самолете, усыпив всех пассажиров и летчиков. Сам Шон и его сообщники спрыгнули с парашютами, а самолет разбился. Но Амброз не знал, что сам Нехорович был носителем вируса - он просто сделал себе инъекцию. Теперь Шону позарез нужен вирус, тщательно охраняемый в здании химической корпорации, ведь без болезни никто не будет покупать лекарство. А Амброз собирался заразить вирусом весь мир, чтобы потом продавать антивирус. Правительство призывает на помощь спецагента Итэна Ханта. Он должен остановить злоумышленника до того момента, как тот приведет в исполнение свои разрушительные планы…

Качество: HDRip
Видео: MPEG4, XviD, 688x288 (2.35:1), 23.976 fps, 1 487 Kbps (0.313 bit/pixel)
Аудио: AC-3, 48.0 KHz, 2 ch, 192 Kbps, CBR
Релиз от: FAGOT100
Скриншоты:

Формат : AVI
Формат/Информация : Audio Video Interleave
Размер файла : 1,46 Гбайт
Продолжительность : 2 ч. 3 м.
Общий поток : 1688 Кбит/сек
Программа кодирования : VirtualDubMod 1.5.10.3 | www.virtualdub-fr.org || (build 2550/release)
Библиотека кодирования : VirtualDubMod build 2550/release
Видео
Идентификатор : 0
Формат : MPEG-4 Visual
Профиль формата : Advanced Simple@L5
Параметр BVOP формата : 2
Параметр QPel формата : Нет
Параметр GMC формата : Без точки перехода
Параметр матрицы формата : Выборочная
Идентификатор кодека : XVID
Идентификатор кодека/Подсказка : XviD
Продолжительность : 2 ч. 3 м.
Битрейт : 1487 Кбит/сек
Ширина : 688 пикселей
Высота : 288 пикселей
Соотношение сторон : 2,40:1
Частота кадров : 23,976 кадра/сек
Цветовое пространство : YUV
Субдискретизация насыщенности : 4:2:0
Битовая глубина : 8 бит
Тип развёртки : Прогрессивная
Метод сжатия : С потерями
Бит/(Пиксели*Кадры) : 0.313
Размер потока : 1,28 Гбайт (88%)
Библиотека кодирования : XviD 73
Аудио
Идентификатор : 1
Формат : AC-3
Формат/Информация : Audio Coding 3
Расширение режима : CM (complete main)
Параметр Endianness формата : Big
Идентификатор кодека : 2000
Продолжительность : 2 ч. 3 м.
Вид битрейта : Постоянный
Битрейт : 192 Кбит/сек
Каналы : 2 канала
Расположение каналов : Front: L R
Частота : 48,0 КГц
Битовая глубина : 16 бит
Метод сжатия : С потерями
Размер потока : 170 Мбайт (11%)
Выравнивание : Разделение по промежуткам
Продолжительность промежутка : 42 мс. (1,00 видеокадр)
Время предзагрузки промежутка : 500 мс.



   Похожие торренты   Торрент   Размер 
В этой теме нет новых непрочитанных сообщений. Миссия невыполнима / Mission: Impossible (1996) HDRip | Гаврилов

282 | 39

1.46 ГБ

В этой теме нет новых непрочитанных сообщений. Миссия невыполнима 3 / Mission: Impossible 3 (2006) HDRip | Гаврилов

203 | 27

1.46 ГБ

В этой теме нет новых непрочитанных сообщений. Миссия невыполнима: Протокол Фантом / Mission: Impossible - Ghost Protocol (2011) HDRip | Гаврилов

135 | 15

1.46 ГБ

В этой теме нет новых непрочитанных сообщений. Миссия: невыполнима 2 / Mission: Impossible II (2000) BDRip от New-Team | D, P

58 | 8

2.18 ГБ

В этой теме нет новых непрочитанных сообщений. Миссия: невыполнима 2 / Mission: Impossible II (2000) BDRip от HQ-ViDEO

770 | 86

2.18 ГБ

В этой теме нет новых непрочитанных сообщений. Миссия: невыполнима 2 / Mission: Impossible II (2000) BDRip от New-Team | D

120 | 34

744.65 МБ

В этой теме нет новых непрочитанных сообщений. Миссия: невыполнима 2 / Mission: Impossible II (2000) BDRip-AVC от New-Team | D, P

138 | 28

2.18 ГБ




Вы не можете начинать темы
Вы не можете отвечать на сообщения
Вы не можете редактировать свои сообщения
Вы не можете удалять свои сообщения
Вы не можете добавлять вложения

Перейти:  
 Вход
ppkBB3cker v.2 © 2008-2014 @ PPK
[ Time : 0.053s | 18 Queries | GZIP : Off ]

cron