img image001 image001 image001 image001 image001 image001 image001 image001 image001 image001 image001 image001 image001 image001 image001 image001
Planets Sun Sun Sun
Статистика раздачи
Автор: Nickolas3434 | Размер: 7.79 ГБ | Добавлен: 12 сен 2015
Раздают: 185    Качают: 48
Скачать торрент
Скачать торрент
Описание торрента

СообщениеДобавлено: 12 сен 2015 


Название: Пленница
Оригинальное название: The Captive
Год выпуска: 2014
Жанр: Триллер, драма
Выпущено: Канада, Ego Film Arts, The Film Farm
Режиссер: Атом Эгоян
В ролях: Райан Рейнольдс, Скотт Спидман, Розарио Доусон, Мирей Инос, Кевин Дюран, Алексия Фаст, Пейтон Кеннеди, Брюс Гринвуд, Брендан Галь, Аарон Пул
О фильме: Фильм расскажет историю отца, который спустя восемь лет после похищения дочери начинает находить зацепки, намекающие на то, что семнадцатилетняя девушка может быть жива.

Качество: BDRip 1080p
Видео: MPEG-4 AVC, 8278 Кбит/с, 1920x808
Аудио: Русский (AC3, 2 ch, 192 Кбит/с), английский (DTS, 6 ch, 1510 Кбит/с)
Продолжительность: 01:51:32
Перевод: Профессиональный (многоголосый) [Официальный]

General
Unique ID : 227433313655971210146791120243479394942 (0xAB1A101B024F23C3947EAE1B187DBA7E)
Complete name : D:Видео 2Plennica.2014.P.BDRip.1080p.mkv
Format : Matroska
Format version : Version 4 / Version 2
File size : 7.79 GiB
Duration : 1h 51mn
Overall bit rate : 9 978 Kbps
Encoded date : UTC 2015-09-09 17:47:25
Writing application : mkvmerge v8.2.0 ('World of Adventure') 64bit
Writing library : libebml v1.3.1 + libmatroska v1.4.2
DURATION : 01:51:45.984000000
NUMBER_OF_FRAMES : 209562
NUMBER_OF_BYTES : 160943616
_STATISTICS_WRITING_APP : mkvmerge v8.2.0 ('World of Adventure') 64bit
_STATISTICS_WRITING_DATE_UTC : 2015-09-09 17:47:25
_STATISTICS_TAGS : BPS DURATION NUMBER_OF_FRAMES NUMBER_OF_BYTES
Video
ID : 1
Format : AVC
Format/Info : Advanced Video Codec
Format profile : High@L4.1
Format settings, CABAC : Yes
Format settings, ReFrames : 5 frames
Codec ID : V_MPEG4/ISO/AVC
Duration : 1h 51mn
Bit rate : 8 278 Kbps
Width : 1 920 pixels
Height : 808 pixels
Display aspect ratio : 2.40:1
Frame rate mode : Constant
Frame rate : 24.000 fps
Color space : YUV
Chroma subsampling : 4:2:0
Bit depth : 8 bits
Scan type : Progressive
Bits/(Pixel*Frame) : 0.222
Stream size : 6.31 GiB (81%)
Writing library : x264 core 144 r2525 40bb568
Encoding settings : cabac=1 / ref=5 / deblock=1:-3:-3 / analyse=0x3:0x133 / me=umh / subme=8 / psy=1 / psy_rd=1.00:0.15 / mixed_ref=1 / me_range=16 / chroma_me=1 / trellis=1 / 8x8dct=1 / cqm=0 / deadzone=21,11 / fast_pskip=0 / chroma_qp_offset=-3 / threads=18 / lookahead_threads=3 / sliced_threads=0 / nr=0 / decimate=1 / interlaced=0 / bluray_compat=0 / constrained_intra=0 / bframes=3 / b_pyramid=2 / b_adapt=2 / b_bias=0 / direct=3 / weightb=1 / open_gop=0 / weightp=2 / keyint=240 / keyint_min=24 / scenecut=40 / intra_refresh=0 / rc_lookahead=50 / rc=2pass / mbtree=1 / bitrate=8278 / ratetol=1.0 / qcomp=0.60 / qpmin=0 / qpmax=69 / qpstep=4 / cplxblur=20.0 / qblur=0.5 / ip_ratio=1.40 / aq=1:1.00
Language : English
Default : Yes
Forced : No
DURATION : 01:51:49.417000000
NUMBER_OF_FRAMES : 161026
NUMBER_OF_BYTES : 6939488401
_STATISTICS_WRITING_APP : mkvmerge v8.2.0 ('World of Adventure') 64bit
_STATISTICS_WRITING_DATE_UTC : 2015-09-09 17:47:25
_STATISTICS_TAGS : BPS DURATION NUMBER_OF_FRAMES NUMBER_OF_BYTES
Audio #1
ID : 2
Format : AC-3
Format/Info : Audio Coding 3
Mode extension : CM (complete main)
Format settings, Endianness : Big
Codec ID : A_AC3
Duration : 1h 51mn
Bit rate mode : Constant
Bit rate : 192 Kbps
Channel(s) : 2 channels
Channel positions : Front: L R
Sampling rate : 48.0 KHz
Bit depth : 16 bits
Compression mode : Lossy
Stream size : 154 MiB (2%)
Language : Russian
Default : Yes
Forced : Yes
Audio #2
ID : 3
Format : DTS
Format/Info : Digital Theater Systems
Mode : 16
Format settings, Endianness : Big
Codec ID : A_DTS
Duration : 1h 51mn
Bit rate mode : Constant
Bit rate : 1 509 Kbps
Channel(s) : 6 channels
Channel positions : Front: L C R, Side: L R, LFE
Sampling rate : 48.0 KHz
Bit depth : 24 bits
Compression mode : Lossy
Stream size : 1.18 GiB (15%)
Language : English
Default : No
Forced : No
Menu
00:00:00.000 : en:00:00:00.000
00:10:16.208 : en:00:10:16.208
00:18:59.583 : en:00:18:59.583
00:26:13.083 : en:00:26:13.083
00:37:21.583 : en:00:37:21.583
00:46:17.125 : en:00:46:17.125
00:55:41.041 : en:00:55:41.041
01:05:08.500 : en:01:05:08.500
01:13:43.750 : en:01:13:43.750
01:25:39.583 : en:01:25:39.583
01:32:16.500 : en:01:32:16.500
01:41:48.958 : en:01:41:48.958



   Похожие торренты   Торрент   Размер 
В этой теме нет новых непрочитанных сообщений. Прекрасная пленница / La Belle Captive (1983) BDRip 1080p от NNNB | P

17 | 1

7.76 ГБ

В этой теме нет новых непрочитанных сообщений. Пленница / The Captive (2014) BDRip 720p | P

814 | 271

6.61 ГБ

В этой теме нет новых непрочитанных сообщений. Пленница / The Captive (2014) BDRip от New-Team | L1

60 | 5

742.31 МБ

В этой теме нет новых непрочитанных сообщений. Пленница / The Captive (2014) BDRip 720p | L1

279 | 50

7.64 ГБ

В этой теме нет новых непрочитанных сообщений. Пленница / The Captive (2014) BDRip от New-Team | L1 | Lord32x

273 | 18

1.45 ГБ

В этой теме нет новых непрочитанных сообщений. Прекрасная пленница / La belle captive (1983) BDRemux 1080p | P, A

0 | 3

22.18 ГБ

В этой теме нет новых непрочитанных сообщений. Пленница / The Captive (2014) HDRip | P

681 | 85

2.06 ГБ




Вы не можете начинать темы
Вы не можете отвечать на сообщения
Вы не можете редактировать свои сообщения
Вы не можете удалять свои сообщения
Вы не можете добавлять вложения

Перейти:  
Для Мосгорсуда, Роскомнадзора и рекламодателей: mosgorsud-torrent[собачка]yandex.ru
 Вход
ppkBB3cker v.2 © 2008-2014 @ PPK
[ Time : 0.030s | 16 Queries | GZIP : Off ]

cron