img image001 image001 image001 image001 image001 image001 image001 image001 image001 image001 image001 image001 image001 image001 image001

Planets Sun Sun Sun
Статистика раздачи
Автор: Nickolas3434 | Размер: 5.32 ГБ | Добавлен: 26 сен 2015
Раздают: 58    Качают: 9
Скачать торрент
Скачать торрент
Описание торрента

СообщениеДобавлено: 26 сен 2015 


Информация о фильме
Название: Женщины на грани нервного срыва
Оригинальное название: Women on the Verge of a Nervous Breakdown (Mujeres al borde de un ataque de nervios)
Год выпуска: 1988
Жанр: Драма, комедия
Режиссер: Педро Альмодовар
В ролях: Кармен Маура, Антонио Бандерас, Хульета Серрано, Росси де Пальма, Мария Барранко, Кити Манвер, Гильермо Монтесинос, Чус Лампреаве, Эдуардо Кальво, Лолес Леон, Анхел де Андрес Лопес, Хуан Ломардеро, Хосе Антонио Наварро, Ана Леса, Амбите, Мэри Гонзалез, Лупе Баррадо, Хоакин Климент, Чема Джил, Габриэль Латорре, Хавьер Бардем
О фильме: Её бросил женатый любовник. Не в силах смириться с его уходом, она названивает ему домой. Однако жена и сын тоже не знают, куда исчез глава семейства. Оскорбленная, уставшая от бессонницы женщина обращается к своему адвокату, а та оказывается той самой femme fatale, с которой любовник-муж-отец втайне собрался в отпуск... Пересказ звучит убаюкивающе, как мыльный телесериал, но на самом деле «Женщины на грани нервного срыва» - это, наверное, самое головокружительное из произведений Педро Альмодовара, любителя острых коктейлей, густо замешанных на любви и ненависти. Все фильмы испанца построены на нешуточных переплетениях судеб и субстанций, но фильм, который сейчас перед вами, - настоящий кошмар домохозяйки.

Страна: Испания
Студия: El Deseo S.A., Laurenfilm S.A.
Продолжительность: 01:28:20
Перевод: Профессиональный многоголосый
Файл
Кодек: MPEG-4 AVC
Качество: BDRip (720p)
Видео: 7589 Кбит/с, 1280x692
Звук: Русский (AC3, 2 ch, 224 Кбит/с), испанский (AC3, 2 ch, 640 Кбит/с)
Субтитры: Русские, испанские


Британская академия, 1990 год
Номинации (1): Лучший фильм на иностранном языке
Оскар, 1989 год
Номинации (1): Лучший фильм на иностранном языке — «Испания»
Золотой глобус, 1989 год
Номинации (1): Лучший фильм на иностранном языке — «Испания»
Гойя, 1989 год Победитель (5):
Лучший фильм
Лучшая женская роль (Кармен Маура)
Лучшая женская роль второго плана (Мария Барранко)
Лучший оригинальный сценарий
Лучший монтаж
Номинации (11):
Лучшая мужская роль второго плана (Гильермо Монтесинос)
Лучшая женская роль второго плана (Хульета Серрано)
Лучший режиссер (Педро Альмодовар)
Лучшая работа оператора
Лучшая работа художника по костюмам
Лучший звук
Лучшие спецэффекты
Лучший оригинальный саундтрек
Лучшая работа художника-постановщика
Лучшее руководство производством
Лучший грим/причёски
Венецианский кинофестиваль, 1988 год
Победитель (1): Золотые Озеллы за лучший сценарий
Европейская киноакадемия, 1988 год
Победитель (2): Лучшая женская роль (Кармен Маура)
Лучший фильм молодого режиссера
Номинации (1): Лучшая работа художника

General
Unique ID : 185143035864721436376082373404117150201 (0x8B49406DE1BB731897713E07E7B7A9F9)
Complete name : Mujeres.al.borde.de.un.ataque.de.nervios.1988.720p.BluRay.Rus.Spa.HDCLUB.mkv
Format : Matroska
Format version : Version 2
File size : 5.32 GiB
Duration : 1h 28mn
Overall bit rate : 8 625 Kbps
Encoded date : UTC 2012-10-13 13:24:43
Writing application : mkvmerge v5.8.0 ('No Sleep / Pillow') built on Sep 2 2012 15:37:04
Writing library : libebml v1.2.3 + libmatroska v1.3.0
Video
ID : 1
Format : AVC
Format/Info : Advanced Video Codec
Format profile : High@L4.1
Format settings, CABAC : Yes
Format settings, ReFrames : 8 frames
Codec ID : V_MPEG4/ISO/AVC
Duration : 1h 28mn
Bit rate : 7 589 Kbps
Width : 1 280 pixels
Height : 692 pixels
Display aspect ratio : 1.85:1
Frame rate mode : Constant
Frame rate : 24.000 fps
Color space : YUV
Chroma subsampling : 4:2:0
Bit depth : 8 bits
Scan type : Progressive
Bits/(Pixel*Frame) : 0.357
Stream size : 4.68 GiB (88%)
Title : Женщины на грани нервного срыва / Women on the Verge of a Nervous Breakdown / Mujeres al borde de un ataque de nervios
Writing library : x264 core 128 r2216 198a7ea
Encoding settings : cabac=1 / ref=8 / deblock=1:-3:-2 / analyse=0x3:0x113 / me=umh / subme=11 / psy=1 / psy_rd=0.95:0.10 / mixed_ref=1 / me_range=32 / chroma_me=1 / trellis=2 / 8x8dct=1 / cqm=0 / deadzone=21,11 / fast_pskip=0 / chroma_qp_offset=-3 / threads=12 / lookahead_threads=2 / sliced_threads=0 / nr=0 / decimate=1 / interlaced=0 / bluray_compat=0 / constrained_intra=0 / bframes=10 / b_pyramid=2 / b_adapt=2 / b_bias=0 / direct=1 / weightb=1 / open_gop=0 / weightp=2 / keyint=240 / keyint_min=24 / scenecut=40 / intra_refresh=0 / rc=crf / mbtree=0 / crf=18.2 / qcomp=0.70 / qpmin=0 / qpmax=69 / qpstep=4 / ip_ratio=1.40 / pb_ratio=1.30 / aq=2:0.80
Language : Spanish
Default : Yes
Forced : No
Color range : Limited
Color primaries : BT.709
Transfer characteristics : BT.709
Matrix coefficients : BT.709
Audio #1
ID : 2
Format : AC-3
Format/Info : Audio Coding 3
Mode extension : CM (complete main)
Format settings, Endianness : Big
Codec ID : A_AC3
Duration : 1h 28mn
Bit rate mode : Constant
Bit rate : 224 Kbps
Channel(s) : 2 channels
Channel positions : Front: L R
Sampling rate : 48.0 KHz
Compression mode : Lossy
Stream size : 142 MiB (3%)
Title : Многолосый закадровый, R5, Кармен Видео, AC-3 224 Kbps 2/0
Language : Russian
Default : Yes
Forced : No
Audio #2
ID : 3
Format : AC-3
Format/Info : Audio Coding 3
Mode extension : CM (complete main)
Format settings, Endianness : Big
Codec ID : A_AC3
Duration : 1h 28mn
Bit rate mode : Constant
Bit rate : 640 Kbps
Channel(s) : 2 channels
Channel positions : Front: L R
Sampling rate : 48.0 KHz
Compression mode : Lossy
Stream size : 404 MiB (7%)
Title : Испанский оригинал, AC-3 640 Kbps 2/0
Language : Spanish
Default : No
Forced : No
Text #1
ID : 4
Format : UTF-8
Codec ID : S_TEXT/UTF8
Codec ID/Info : UTF-8 Plain Text
Title : Субтитры
Language : Russian
Default : No
Forced : No
Text #2
ID : 5
Format : UTF-8
Codec ID : S_TEXT/UTF8
Codec ID/Info : UTF-8 Plain Text
Title : Субтитры
Language : Spanish
Default : No
Forced : No
Menu
00:00:00.000 : es:Chapter 01
00:10:37.375 : es:Chapter 02
00:22:55.708 : es:Chapter 03
00:36:23.916 : es:Chapter 04
00:46:45.875 : es:Chapter 05
00:57:29.000 : es:Chapter 06
01:03:47.541 : es:Chapter 07
01:17:44.875 : es:Chapter 08

Релиз от:



   Похожие торренты   Торрент   Размер 
В этой теме нет новых непрочитанных сообщений. Женщины на грани нервного срыва / Mujeres al borde de un ataque de nervios (1988) BDRip 1080p

38 | 3

6.37 ГБ

В этой теме нет новых непрочитанных сообщений. Женщины на грани нервного срыва / Mujeres al borde de un ataque de nervios (1988) DVDRip

41 | 2

1.37 ГБ

В этой теме нет новых непрочитанных сообщений. Женщины на грани нервного срыва / Mujeres al borde de un ataque de nervios (1988) HDRip от Scarabey | P

54 | 8

1.45 ГБ

В этой теме нет новых непрочитанных сообщений. Отдых на грани нервного срыва / Ni a vendre ni a louer (2011) DVDRip

74 | 4

743.19 МБ

В этой теме нет новых непрочитанных сообщений. Отдых на грани нервного срыва / Ni à vendre ni à louer (2011) DVDRip | Sub

526 | 9

1.45 ГБ

В этой теме нет новых непрочитанных сообщений. Отдых на грани нервного срыва / Ni a vendre ni a louer (2011) DVD9

24 | 4

4.57 ГБ

В этой теме нет новых непрочитанных сообщений. Девушка на грани нервного срыва / Romaine par moins 30 (2009) DVDRip-AVC

0 | 4

1.44 ГБ




Вы не можете начинать темы
Вы не можете отвечать на сообщения
Вы не можете редактировать свои сообщения
Вы не можете удалять свои сообщения
Вы не можете добавлять вложения

Перейти:  
Для Мосгорсуда, Роскомнадзора и рекламодателей: mosgorsud-torrent[собачка]yandex.ru
 Вход
ppkBB3cker v.2 © 2008-2014 @ PPK
[ Time : 0.055s | 19 Queries | GZIP : Off ]

cron