img image001 image001 image001 image001 image001 image001 image001 image001 image001 image001 image001 image001 image001 image001 image001 image001

Planets Sun Sun Sun
Статистика раздачи
Автор: Снежана | Размер: 2.18 ГБ | Добавлен: 21 июл 2013
Раздают: 6    Качают: 2
Скачать торрент
Скачать торрент
Описание торрента

СообщениеДобавлено: 21 июл 2013 

Любовная лихорадка / Любовная песня для Бобби Лонга / A Love Song for Bobby Long (2004) BDRip-AVC от PowerTracker

Жанр: драма
Страна: США
Режиссер: Шэйни Гейбел
В ролях: Джон Траволта, Скарлетт Йоханссон, Гэбриел Махт, Дебора Кара Ангер, Дэйн Родс, Дэвид Дженсен, Клейн Кроуфорд, Уолтер Бро, Сонни Шроер, Кэрол Саттон
Сюжет фильма: Это история о лжи, которую семьи рассказывают друг другу и о правде этой лжи в каждой семье. Фильм о том, как выходить из трудного положения, о том, как ладить между собой и, как результат, получить второй шанс обрести близких тебе людей. Свободолюбивая девушка возвращается в Новый Орлеан после смерти ее матери, которую она никогда не знала. Неожиданно для себя девушка узнает тайну о своей семье, своей матери и о себе…
Мировая премьера: 2 сентября 2004
Российская премьера: 24 февраля 2005, «Централ Партнершип»

Продолжительность: 01:59:51
Качество видео: BDRip-AVC
Видео: кодек: x264, размер кадра: 1024x552, битрейт: 1968 кб/с, bit/pixel: 0.145
Аудио #1: язык: Русский , перевод: Профессиональный двухголосый закадровый (CP Digital), кодек: AC3 5.1, битрейт: 320.00 кб/с
Аудио #2: язык: Английский , перевод: оригинал, кодек: AC3 5.1, битрейт: 320.00 кб/с
&
Общее
Уникальный идентификатор : 250647698356175661032182268570158929158 (0xBC90FDA37813E41F84039A6570AA9506)
Полное имя : D:A Love Song for Bobby Long.2004.BDRip-AVC.PT.mkv
Формат : Matroska
Размер файла : 2,18 Гбайт
Продолжительность : 1 ч. 59 м.
Общий поток : 2607 Кбит/сек
Название фильма : Любовная лихорадка / Любовная песня для Бобби Лонга / A Love Song for Bobby Long (2004) BDRip-AVC rip by rulya74
Дата кодирования : UTC 2011-12-20 05:16:56
Программа кодирования : mkvmerge v4.8.0 ('I Got The...') сборка от May 31 2011 13:11:21
Библиотека кодирования : libebml v1.2.0 + libmatroska v1.1.0
Видео
Идентификатор : 1
Формат : AVC
Формат/Информация : Advanced Video Codec
Профиль формата : High@L4.1
Параметр CABAC формата : Да
Параметр ReFrames формата : 10 кадров
Параметры GOP формата : M=7, N=9
Идентификатор кодека : V_MPEG4/ISO/AVC
Продолжительность : 1 ч. 59 м.
Битрейт : 1968 Кбит/сек
Ширина : 1024 пикс.
Высота : 552 пикс.
Соотношение сторон : 1,855
Частота кадров : 24,000 кадр/сек
Цветовое пространство : YUV
Подвыборка цветности : 4:2:0
Битовая глубина : 8 бит
Тип развёртки : Прогрессивная
Бит/(Пиксели*Кадры) : 0.145
Размер потока : 1,60 Гбайт (73%)
Библиотека кодирования : x264 core 116 r2074 2641b9e
Настройки программы : cabac=1 / ref=10 / deblock=1:-3:-2 / analyse=0x3:0x113 / me=umh / subme=9 / psy=1 / psy_rd=1.00:0.00 / mixed_ref=1 / me_range=32 / chroma_me=1 / trellis=2 / 8x8dct=1 / cqm=0 / deadzone=21,11 / fast_pskip=1 / chroma_qp_offset=-2 / threads=3 / sliced_threads=0 / nr=0 / decimate=1 / interlaced=0 / bluray_compat=0 / constrained_intra=0 / bframes=6 / b_pyramid=2 / b_adapt=1 / b_bias=0 / direct=1 / weightb=1 / open_gop=0 / weightp=2 / keyint=250 / keyint_min=24 / scenecut=40 / intra_refresh=0 / rc_lookahead=40 / rc=2pass / mbtree=1 / bitrate=1968 / ratetol=1.0 / qcomp=0.60 / qpmin=10 / qpmax=51 / qpstep=4 / cplxblur=20.0 / qblur=0.5 / ip_ratio=1.40 / aq=1:1.00
Аудио #1
Идентификатор : 2
Формат : AC-3
Формат/Информация : Audio Coding 3
Расширение режима : CM (complete main)
Идентификатор кодека : A_AC3
Продолжительность : 1 ч. 59 м.
Вид битрейта : Постоянный
Битрейт : 320 Кбит/сек
Каналы : 6 каналов
Расположение каналов : Front: L C R, Side: L R, LFE
Частота : 48,0 КГц
Битовая глубина : 16 бит
Метод сжатия : С потерями
Размер потока : 275 Мбайт (12%)
Заголовок : DVO (CP Digital)
Язык : Russian
Аудио #2
Идентификатор : 3
Формат : AC-3
Формат/Информация : Audio Coding 3
Расширение режима : CM (complete main)
Идентификатор кодека : A_AC3
Продолжительность : 1 ч. 59 м.
Вид битрейта : Постоянный
Битрейт : 320 Кбит/сек
Каналы : 6 каналов
Расположение каналов : Front: L C R, Side: L R, LFE
Частота : 48,0 КГц
Битовая глубина : 16 бит
Метод сжатия : С потерями
Размер потока : 275 Мбайт (12%)
Заголовок : Original
Язык : English





   Похожие торренты   Торрент   Размер 
В этой теме нет новых непрочитанных сообщений. Любовная лихорадка / Любовная песня для Бобби Лонга / A Love Song for Bobby Long (2004) BDRip от HQCLUB

13 | 3

2.18 ГБ

В этой теме нет новых непрочитанных сообщений. Любовная лихорадка / Любовная песня для Бобби Лонга / A Love Song for Bobby Long (2004) BDRip 1080 от Element team

0 | 6

4.37 ГБ

В этой теме нет новых непрочитанных сообщений. Любовная лихорадка / A Love Song for Bobby Long (2004) BDRip 720p

2 | 4

5.84 ГБ

В этой теме нет новых непрочитанных сообщений. Любовная лихорадка / A Love Song for Bobby Long (2004) BDRip 720p от HQ-ViDEO

14 | 9

5.95 ГБ

В этой теме нет новых непрочитанных сообщений. Любовная лихорадка / A Love Song for Bobby Long (2004) HDRip | A

33 | 2

1.47 ГБ

В этой теме нет новых непрочитанных сообщений. Любовная лихорадка / A love Song for Bobby Long (2004) DVDRip от HQ-VIDEO

20 | 9

1.45 ГБ

В этой теме нет новых непрочитанных сообщений. Моя любовная песня / My Own Love Song (2010) BDRip 720p от NOLIMITS-TEAM

4 | 1

2.21 ГБ




Вы не можете начинать темы
Вы не можете отвечать на сообщения
Вы не можете редактировать свои сообщения
Вы не можете удалять свои сообщения
Вы не можете добавлять вложения

Перейти:  
 Вход
ppkBB3cker v.2 © 2008-2014 @ PPK
[ Time : 0.033s | 18 Queries | GZIP : Off ]

cron