img image001 image001 image001 image001 image001 image001 image001 image001 image001 image001 image001 image001 image001 image001 image001 image001

Planets Sun Sun Sun
Статистика раздачи
Автор: Nickolas3434 | Размер: 1.46 ГБ | Добавлен: 03 окт 2015
Раздают: 68    Качают: 3
Скачать торрент
Скачать торрент
Описание торрента

СообщениеДобавлено: 03 окт 2015 


Страна: США
Производство: Arica Productions, Trimark Pictures
Жанр: Боевик
Год выпуска: 1993
Продолжительность: 01:31:54
Перевод: Профессиональный многоголосый, авторский(Гаврилов)
Оригинальная аудиодорожка: Английская
Режиссер: Марк Л. Лестер
В ролях: Лу Даймонд Филлипс, Скотт Гленн, Челси Филд, Яфет Котто, Эндрю Дивофф, Ричард Гроув, Уильям Лаккинг, Л. Скотт Колдуэлл, Ларри Холт, Дэниэл Куинн
Описание:Полицейский спецназ безжалостно уничтожает самых прожженных преступников нетрадиционными методами, не укладывающимися в рамки закона и нормальной полицейской практики. Его тактика беспощадна — случайные свидетели и потерпевшие считаются неизбежными жертвами — и весьма эффективна.

Исходник: DVD9 R1
Тип релиза: DVDRip
Контейнер: AVI
Видео: 640x480 (1.33:1), 25 fps, XviD MPEG-4 ~1680 kbps avg, 0.22 bit/pixel
Аудио 1: 48 kHz, AC3 Dolby Digital, 2/0 (L,R) ch, ~192 kbps (русский)
Аудио 2: 48 kHz, AC3 Dolby Digital, 2/0 (L,R) ch, ~192 kbps (русский)
Аудио 3: 48 kHz, AC3 Dolby Digital, 2/0 (L,R) ch, ~192 kbps (английский)
Общее
Полное имя : D:ААА2Элитный отряд.avi
Формат : AVI
Формат/Информация : Audio Video Interleave
Размер файла : 1,46 Гбайт
Продолжительность : 1 ч. 31 м.
Общий поток : 2277 Кбит/сек
Программа кодирования : VirtualDubMod 1.5.10.2 (build 2540/release)
Библиотека кодирования : VirtualDubMod build 2540/release
Видео
Идентификатор : 0
Формат : MPEG-4 Visual
Профиль формата : Advanced Simple@L5
Параметр BVOP формата : 2
Параметр QPel формата : Нет
Параметр GMC формата : Без точки перехода
Параметр матрицы формата : Default (MPEG)
Режим смешивания : Сжатый битовый поток
Идентификатор кодека : XVID
Идентификатор кодека/Подсказка : XviD
Продолжительность : 1 ч. 31 м.
Битрейт : 1682 Кбит/сек
Ширина : 640 пикселей
Высота : 480 пикселей
Соотношение сторон : 4:3
Частота кадров : 25,000 кадров/сек
Цветовое пространство : YUV
Субдискретизация насыщенности : 4:2:0
Битовая глубина : 8 бит
Тип развёртки : Прогрессивная
Метод сжатия : С потерями
Бит/(Пиксели*Кадры) : 0.219
Размер потока : 1,08 Гбайт (74%)
Библиотека кодирования : XviD 1.2.1 (UTC 2008-12-04)
Аудио #1
Идентификатор : 1
Формат : AC-3
Формат/Информация : Audio Coding 3
Расширение режима : CM (complete main)
Параметр Endianness формата : Big
Идентификатор кодека : 2000
Продолжительность : 1 ч. 31 м.
Вид битрейта : Постоянный
Битрейт : 192 Кбит/сек
Каналы : 2 канала
Расположение каналов : Front: L R
Частота : 48,0 КГц
Битовая глубина : 16 бит
Метод сжатия : С потерями
Размер потока : 126 Мбайт (8%)
Выравнивание : Разделение по промежуткам
Продолжительность промежутка : 40 мс. (1,00 видеокадр)
Время предзагрузки промежутка : 500 мс.
Аудио #2
Идентификатор : 2
Формат : AC-3
Формат/Информация : Audio Coding 3
Расширение режима : CM (complete main)
Параметр Endianness формата : Big
Идентификатор кодека : 2000
Продолжительность : 1 ч. 31 м.
Вид битрейта : Постоянный
Битрейт : 192 Кбит/сек
Каналы : 2 канала
Расположение каналов : Front: L R
Частота : 48,0 КГц
Битовая глубина : 16 бит
Метод сжатия : С потерями
Размер потока : 126 Мбайт (8%)
Выравнивание : Разделение по промежуткам
Продолжительность промежутка : 40 мс. (1,00 видеокадр)
Время предзагрузки промежутка : 500 мс.
Аудио #3
Идентификатор : 3
Формат : AC-3
Формат/Информация : Audio Coding 3
Расширение режима : CM (complete main)
Параметр Endianness формата : Big
Идентификатор кодека : 2000
Продолжительность : 1 ч. 31 м.
Вид битрейта : Постоянный
Битрейт : 192 Кбит/сек
Каналы : 2 канала
Расположение каналов : Front: L R
Частота : 48,0 КГц
Битовая глубина : 16 бит
Метод сжатия : С потерями
Размер потока : 126 Мбайт (8%)
Выравнивание : Разделение по промежуткам
Продолжительность промежутка : 40 мс. (1,00 видеокадр)
Время предзагрузки промежутка : 500 мс.


Релиз:



   Похожие торренты   Торрент   Размер 
В этой теме нет новых непрочитанных сообщений. Элитный отряд / Flics [S01] (2008) DVDRip | Р

134 | 2

2.42 ГБ

В этой теме нет новых непрочитанных сообщений. Элитный отряд / Tropa de Elite (2007) DVDRip от Pasha74

18 | 3

1.37 ГБ

В этой теме нет новых непрочитанных сообщений. OST - Элитный отряд / Tropa de Elite (2007) MP3

8 | 1

39.18 МБ

В этой теме нет новых непрочитанных сообщений. Элитный отряд / Tropa de Elite (2007) BD-Remux

1 | 2

18.6 ГБ

В этой теме нет новых непрочитанных сообщений. Элитный отряд / Tropa de Elite (2007) BDRip от RAMpage CHG

2 | 1

701.56 МБ

В этой теме нет новых непрочитанных сообщений. Элитный отряд / Tropa de Elite (2007) BDRip 720p

5 | 2

8.85 ГБ

В этой теме нет новых непрочитанных сообщений. Элитный отряд / Tropa de Elite (2007) BDRip-AVC от Leo.pard and Scarabey | Лицензия

394 | 18

745.61 МБ




Вы не можете начинать темы
Вы не можете отвечать на сообщения
Вы не можете редактировать свои сообщения
Вы не можете удалять свои сообщения
Вы не можете добавлять вложения

Перейти:  
 Вход
ppkBB3cker v.2 © 2008-2014 @ PPK
[ Time : 0.031s | 18 Queries | GZIP : Off ]

cron