img image001 image001 image001 image001 image001 image001 image001 image001 image001 image001 image001 image001 image001 image001 image001 image001

Planets Sun Sun Sun
Статистика раздачи
Автор: Nickolas3434 | Размер: 6.3 ГБ | Добавлен: 04 окт 2015
Раздают: 47    Качают: 6
Скачать торрент
Скачать торрент
Описание торрента

СообщениеДобавлено: 04 окт 2015 


Название: План игры
Оригинальное название: The Game Plan
Год выпуска: 2007
Жанр: Комедия, семейный, спорт
Выпущено: США, Mayhem Pictures, Monkey Dance Productions, Walt Disney Pictures
Режиссер: Энди Фикмен
В ролях: Дуэйн Джонсон, Мэдисон Петтис, Кира Седжвик, Розелин Санчес, Моррис Честнат, Хэйз МакАртур, Брайан Дж. Уайт, Джамал Дафф, Пейдж Турко, Таббс, Гордон Клэпп, Кейт Наута, Роберт Торти, Джеки Флинн, Лорен Сторм, Эрик Огбогу, Кристин Лэйкин
О фильме: Профессиональный игрок в американский футбол внезапно узнает о существовании своей дочери. Появившаяся откуда не возьмись дочурка помогает спортсмену переквалифицироваться из отвязного холостяка в образцово-показательного папашу.

Качество: BDRip 720p
Видео: MPEG-4 AVC, 5938 Кбит/c, 1280x534, 23.976 кадр/с
Аудио#1: Russian: 48 kHz, AC3, 3/2 (L,C,R,l,r) + LFE ch, ~ 384.00 kbps avg - Дублированный
Аудио#2: English: 48 kHz, DTS, 3/2 (L,C,R,l,r) + LFE ch, ~ 1509.00 kbps avg - Оригинал
Аудио#3: English: 48 kHz, AC3, 2/0 (L,R) ch, ~ 192.00 kbps avg - Комментарии
Продолжительность: 01:50:14
Перевод: Дублированный
Субтитры: Русские (форс, полные), украинские, английские
General
Unique ID : 189515926292117283956968813621550627737 (0x8E937092B294048DBCA862D1FF65BB99)
Complete name : The.Game.Plan.2007.720p.BluRay.Rus.Eng.HDCLUB.mkv
Format : Matroska
Format version : Version 2
File size : 6.30 GiB
Duration : 1h 50mn
Overall bit rate : 8 186 Kbps
Movie name : The Game Plan (2007) - Release for HDCLUB
Encoded date : UTC 2010-09-17 12:45:29
Writing application : mkvmerge v4.0.0 ('The Stars were mine') сборка от Jun 6 2010 16:18:42
Writing library : libebml v1.0.0 + libmatroska v1.0.0
Video
ID : 1
Format : AVC
Format/Info : Advanced Video Codec
Format profile : High@L4.1
Format settings, CABAC : Yes
Format settings, ReFrames : 7 frames
Codec ID : V_MPEG4/ISO/AVC
Duration : 1h 50mn
Bit rate : 5 938 Kbps
Width : 1 280 pixels
Height : 534 pixels
Display aspect ratio : 2.40:1
Frame rate mode : Constant
Frame rate : 23.976 fps
Color space : YUV
Chroma subsampling : 4:2:0
Bit depth : 8 bits
Scan type : Progressive
Bits/(Pixel*Frame) : 0.362
Stream size : 4.57 GiB (73%)
Title : The Game Plan (2007) - Release for HDCLUB
Writing library : x264 core 104 r1713 c276662
Encoding settings : cabac=1 / ref=7 / deblock=1:-2:-2 / analyse=0x3:0x113 / me=umh / subme=10 / psy=1 / psy_rd=1.00:0.00 / mixed_ref=1 / me_range=32 / chroma_me=1 / trellis=2 / 8x8dct=1 / cqm=0 / deadzone=21,11 / fast_pskip=0 / chroma_qp_offset=-2 / threads=6 / sliced_threads=0 / nr=0 / decimate=1 / interlaced=0 / constrained_intra=0 / bframes=8 / b_pyramid=2 / b_adapt=2 / b_bias=0 / direct=3 / weightb=1 / open_gop=0 / weightp=2 / keyint=250 / keyint_min=23 / scenecut=40 / intra_refresh=0 / rc=crf / mbtree=0 / crf=16.7 / qcomp=0.60 / qpmin=10 / qpmax=51 / qpstep=4 / ip_ratio=1.40 / pb_ratio=1.30 / aq=1:0.80
Language : English
Default : Yes
Forced : No
Audio #1
ID : 2
Format : AC-3
Format/Info : Audio Coding 3
Mode extension : CM (complete main)
Format settings, Endianness : Big
Codec ID : A_AC3
Duration : 1h 50mn
Bit rate mode : Constant
Bit rate : 384 Kbps
Channel(s) : 6 channels
Channel positions : Front: L C R, Side: L R, LFE
Sampling rate : 48.0 KHz
Compression mode : Lossy
Stream size : 303 MiB (5%)
Title : дубляж [ac3 6ch 384 kbps]
Language : Russian
Default : Yes
Forced : No
Audio #2
ID : 3
Format : DTS
Format/Info : Digital Theater Systems
Mode : 16
Format settings, Endianness : Big
Codec ID : A_DTS
Duration : 1h 50mn
Bit rate mode : Constant
Bit rate : 1 509 Kbps
Channel(s) : 6 channels
Channel positions : Front: L C R, Side: L R, LFE
Sampling rate : 48.0 KHz
Bit depth : 16 bits
Compression mode : Lossy
Stream size : 1.16 GiB (18%)
Title : original [dts 6ch 1509 kbps]
Language : English
Default : No
Forced : No
Audio #3
ID : 4
Format : AC-3
Format/Info : Audio Coding 3
Mode extension : CM (complete main)
Format settings, Endianness : Big
Codec ID : A_AC3
Duration : 1h 50mn
Bit rate mode : Constant
Bit rate : 192 Kbps
Channel(s) : 2 channels
Channel positions : Front: L R
Sampling rate : 48.0 KHz
Compression mode : Lossy
Stream size : 151 MiB (2%)
Title : commentary [ac3 2ch 192 kbps]
Language : English
Default : No
Forced : No
Text #1
ID : 5
Format : UTF-8
Codec ID : S_TEXT/UTF8
Codec ID/Info : UTF-8 Plain Text
Language : Russian
Default : No
Forced : No
Text #2
ID : 6
Format : UTF-8
Codec ID : S_TEXT/UTF8
Codec ID/Info : UTF-8 Plain Text
Title : for
Language : Russian
Default : Yes
Forced : No
Text #3
ID : 7
Format : UTF-8
Codec ID : S_TEXT/UTF8
Codec ID/Info : UTF-8 Plain Text
Language : Ukrainian
Default : No
Forced : No
Text #4
ID : 8
Format : UTF-8
Codec ID : S_TEXT/UTF8
Codec ID/Info : UTF-8 Plain Text
Language : English
Default : No
Forced : No
Text #5
ID : 9
Format : UTF-8
Codec ID : S_TEXT/UTF8
Codec ID/Info : UTF-8 Plain Text
Title : sdh
Language : English
Default : No
Forced : No
Menu
00:00:00.000 : en:00:00:00.000
00:04:47.537 : en:00:04:47.537
00:10:32.632 : en:00:10:32.632
00:17:16.285 : en:00:17:16.285
00:23:54.141 : en:00:23:54.141
00:28:48.601 : en:00:28:48.601
00:32:17.060 : en:00:32:17.060
00:37:06.057 : en:00:37:06.057
00:43:39.324 : en:00:43:39.324
00:50:36.324 : en:00:50:36.324
00:54:43.863 : en:00:54:43.863
01:01:17.673 : en:01:01:17.673
01:08:45.120 : en:01:08:45.120
01:12:35.350 : en:01:12:35.350
01:18:57.190 : en:01:18:57.190
01:25:01.095 : en:01:25:01.095
01:29:12.972 : en:01:29:12.972
01:34:25.451 : en:01:34:25.451
01:40:33.235 : en:01:40:33.235
01:45:30.281 : en:01:45:30.281

Релиз от:



   Похожие торренты   Торрент   Размер 
В этой теме нет новых непрочитанных сообщений. План игры / The Game Plan (2007) BDRip-AVC от SuperMin | D

3 | 2

2.42 ГБ

В этой теме нет новых непрочитанных сообщений. План игры / The Game Plan (2007) BDRip 1080p | Лицензия

47 | 6

7.76 ГБ

В этой теме нет новых непрочитанных сообщений. План игры / The Game Plan (2007) HDRip от Scarabey | D

143 | 11

1.45 ГБ

В этой теме нет новых непрочитанных сообщений. План игры / The Game Plan (2007) HDRip от Scarabey | D

145 | 15

744.46 МБ

В этой теме нет новых непрочитанных сообщений. План игры / The Game Plan (2007) BDRemux 1080р | D

0 | 0

19.22 ГБ

В этой теме нет новых непрочитанных сообщений. План побега / Escape Plan (2013) BDRip 720p | D, P

0 | 2

7.69 ГБ

В этой теме нет новых непрочитанных сообщений. План побега / Escape Plan (2013) BDRip 720p | USA Transfer | D, L, A

39 | 65

14.73 ГБ




Вы не можете начинать темы
Вы не можете отвечать на сообщения
Вы не можете редактировать свои сообщения
Вы не можете удалять свои сообщения
Вы не можете добавлять вложения

Перейти:  
 Вход
ppkBB3cker v.2 © 2008-2014 @ PPK
[ Time : 0.030s | 15 Queries | GZIP : Off ]

cron