img image001 image001 image001 image001 image001 image001 image001 image001 image001 image001 image001 image001 image001 image001 image001

Planets Sun Sun Sun
Статистика раздачи
Автор: Nickolas3434 | Размер: 1.46 ГБ | Добавлен: 04 окт 2015
Раздают: 50    Качают: 10
Скачать торрент
Скачать торрент
Описание торрента

СообщениеДобавлено: 04 окт 2015 

Изгоняющий дьявола III / The Exorcist III (1990) HDRip


Производство: США, Morgan Creek Productions
Жанр: Ужасы, Триллер, Детектив
Режиссер: Уильям Питер Блэтти
Актеры: Джордж К. Скотт, Эд Флэндерс, Брэд Дуриф, Джейсон Миллер, Никол Уильямсон, Скотт Уилсон, Нэнси Фиш, Джордж ДиЧенцо, Дон Гордон, Ли Ричардсон
Описание:
Женщина тихонечко, словно муха… крадется по потолку. Все новые и новые жертвы гибнут от рук убийцы, который погиб много лет назад. Взвивается пламя, ползут змеи, земля разверзается, открывая корчащиеся тела прoклятых. Зло возвращается.
Релиз от: FAGOT100 (NNM-CLUB)
Продолжительность: 01:49:56
Качество видео: HDRip (источник: BDRip 720p)
Перевод: Профессиональный (многоголосый, закадровый)
Субтитры: отсутствуют
Видео: MPEG4, XviD, 720x400 (16:9), 23.976 fps, 1 699 Kbps (0.246 bit/pixel)
Аудио: AC-3, 48.0 KHz, 2 ch, 192 Kbps, CBR
Скриншоты:


Формат : AVI
Формат/Информация : Audio Video Interleave
Размер файла : 1,46 Гбайт
Продолжительность : 1 ч. 49 м.
Общий поток : 1900 Кбит/сек
Программа кодирования : VirtualDubMod 1.5.10.3 | www.virtualdub-fr.org || (build 2550/release)
Библиотека кодирования : VirtualDubMod build 2550/release
Видео
Идентификатор : 0
Формат : MPEG-4 Visual
Профиль формата : Advanced Simple@L5
Параметр BVOP формата : 1
Параметр QPel формата : Нет
Параметр GMC формата : Без точки перехода
Параметр матрицы формата : Выборочная
Идентификатор кодека : XVID
Идентификатор кодека/Подсказка : XviD
Продолжительность : 1 ч. 49 м.
Битрейт : 1699 Кбит/сек
Ширина : 720 пикселей
Высота : 400 пикселей
Соотношение сторон : 16:9
Частота кадров : 23,976 кадра/сек
Цветовое пространство : YUV
Субдискретизация насыщенности : 4:2:0
Битовая глубина : 8 бит
Тип развёртки : Прогрессивная
Метод сжатия : С потерями
Бит/(Пиксели*Кадры) : 0.246
Размер потока : 1,30 Гбайт (89%)
Библиотека кодирования : XviD 73
Аудио
Идентификатор : 1
Формат : AC-3
Формат/Информация : Audio Coding 3
Расширение режима : CM (complete main)
Параметр Endianness формата : Big
Идентификатор кодека : 2000
Продолжительность : 1 ч. 49 м.
Вид битрейта : Постоянный
Битрейт : 192 Кбит/сек
Каналы : 2 канала
Расположение каналов : Front: L R
Частота : 48,0 КГц
Битовая глубина : 16 бит
Метод сжатия : С потерями
Размер потока : 151 Мбайт (10%)
Выравнивание : Разделение по промежуткам
Продолжительность промежутка : 42 мс. (1,00 видеокадр)
Время предзагрузки промежутка : 500 мс.

   Похожие торренты   Торрент   Размер 
В этой теме нет новых непрочитанных сообщений. Изгоняющий дьявола: Начало / Exorcist: The Beginning (2004) HDRip-AVC | P, P2, А

91 | 8

2.94 ГБ

В этой теме нет новых непрочитанных сообщений. Изгоняющий дьявола: Приквел / Dominion - Prequel to the Exorcist (2005) HDRip-AVC | P

93 | 8

2.61 ГБ

В этой теме нет новых непрочитанных сообщений. Изгоняющий дьявола / The Exorcist (1973) HDRip от Scarabey | D | Режиссёрская версия

141 | 18

1.45 ГБ

В этой теме нет новых непрочитанных сообщений. Изгоняющий дьявола / The Exorcist (1973) HDRip от Scarabey | D | Режиссёрская версия

74 | 9

792.73 МБ

В этой теме нет новых непрочитанных сообщений. Изгоняющий дьявола / The Exorcist [S01] (2016) WEB-DLRip | IdeaFilm

0 | 1

5.81 ГБ

В этой теме нет новых непрочитанных сообщений. Изгоняющий дьявола / The Exorcist [01x01-03 из 10] (2016) WEB-DLRip | IdeaFilm

7 | 3

1.79 ГБ

В этой теме нет новых непрочитанных сообщений. Изгоняющий дьявола / The Exorcist [01x01 из 13] (2016) HDTVRip | Jaskier

92 | 30

395.08 МБ




Вы не можете начинать темы
Вы не можете отвечать на сообщения
Вы не можете редактировать свои сообщения
Вы не можете удалять свои сообщения
Вы не можете добавлять вложения

Перейти:  
 Вход
ppkBB3cker v.2 © 2008-2014 @ PPK
[ Time : 0.023s | 17 Queries | GZIP : Off ]

cron