img image001 image001 image001 image001 image001 image001 image001 image001 image001 image001 image001 image001 image001 image001 image001 image001

Planets Sun Sun Sun
Статистика раздачи
Автор: Nickolas3434 | Размер: 1.36 ГБ | Добавлен: 09 ноя 2015
Раздают: 104    Качают: 21
Скачать торрент
Скачать торрент
Описание торрента

СообщениеДобавлено: 09 ноя 2015 


Информация о фильме
Название: Профиль серийного убийцы
Оригинальное название: Halifax f.p: Afraid of the Dark
Год выхода: 1998
Жанр: триллер
Режиссер: Стив Джодрелл
В ролях: Ребекка Гибни, Шэйн Коннор, Хью Джекман, Сьюзэн Лайонс, Кэтрин Уилкин, Бэрри Лэнгриш, Майлс Коллинз, Бретт Суэйн, Мэттью Кросби, Брайан Маршалл
Описание: Судебный психолог Джейн Халифакс приглашается помочь в расследовании загадочного массового убийства на бензоколонке. Выжил только автомеханик Рэй, но ни одной улики или зацепки, могущей определить убийцу нет. Джейн надлежит нарисовать психологический портрет маньяка, но сама она находится в тяжелой депрессии и ходит к психиатру. К тому же резня на бензоколонке всколыхнула в её памяти обстоятельства гибели отца… Ввести Джейн в курс дела должен детектив Эрик Рингер, и скоро его интерес к женщине перерастает профессиональный.

Страна: Австралия
Продолжительность: 01:42:18
Перевод:
1. Профессиональный (многоголосый закадровый) - Перец
2. Авторский (одноголосый закадровый) - А.Дольский
3. Английский (Оригинал)
Файл
Формат: AVI
Качество: DVDRip
Видео: 720x528, (4:3), DivX 5, 1301 Кбит/сек, 29,970 кадров/сек
Аудио №1: AC3, 224 Кбит/сек, 2 канала, 48,0 КГц - Перец
Аудио №2: AC3, 224 Кбит/сек, 2 канала, 48,0 КГц - Дольский
Аудио №3: MP3, 128 Кбит/сек, 2 канала, 48,0 КГц - Английский (Оригинал)

Общее
Полное имя : J:Профиль серийного убийцы.avi
Формат : AVI
Формат/Информация : Audio Video Interleave
Размер файла : 1,36 Гбайт
Продолжительность : 1 ч. 42 м.
Общий поток : 1900 Кбит/сек
Название фильма : Профиль серийного убийцы / Profile of a serial killer / Afraid of The Dark (1998)
Программа кодирования : VirtualDubMod 1.5.10.2 (build 2540/release)
Библиотека кодирования : VirtualDubMod build 2540/release
Видео
Идентификатор : 0
Формат : MPEG-4 Visual
Параметр BVOP формата : 1
Параметр QPel формата : Нет
Параметр GMC формата : Без точки перехода
Параметр матрицы формата : Default (H.263)
Режим смешивания : Сжатый битовый поток
Идентификатор кодека : DX50
Идентификатор кодека/Подсказка : DivX 5
Продолжительность : 1 ч. 42 м.
Битрейт : 1301 Кбит/сек
Ширина : 720 пикселей
Высота : 528 пикселей
Соотношение сторон : 4:3
Частота кадров : 29,970 кадров/сек
Цветовое пространство : YUV
Субдискретизация насыщенности : 4:2:0
Битовая глубина : 8 бит
Тип развёртки : Прогрессивная
Метод сжатия : С потерями
Бит/(Пиксели*Кадры) : 0.114
Размер потока : 952 Мбайт (68%)
Библиотека кодирования : DivX 6.2.5 (UTC 2006-07)
Аудио #1
Идентификатор : 1
Формат : AC-3
Формат/Информация : Audio Coding 3
Расширение режима : CM (complete main)
Параметр Endianness формата : Big
Идентификатор кодека : 2000
Продолжительность : 1 ч. 42 м.
Вид битрейта : Постоянный
Битрейт : 224 Кбит/сек
Каналы : 2 канала
Расположение каналов : Front: L R
Частота : 48,0 КГц
Метод сжатия : С потерями
Размер потока : 164 Мбайт (12%)
Выравнивание : Разделение по промежуткам
Продолжительность промежутка : 33 мс. (1,00 видеокадр)
Время предзагрузки промежутка : 500 мс.
Заголовок : Профессиональный (многоголосый закадровый) Перец
Аудио #2
Идентификатор : 2
Формат : AC-3
Формат/Информация : Audio Coding 3
Расширение режима : CM (complete main)
Параметр Endianness формата : Big
Идентификатор кодека : 2000
Продолжительность : 1 ч. 42 м.
Вид битрейта : Постоянный
Битрейт : 224 Кбит/сек
Каналы : 2 канала
Расположение каналов : Front: L R
Частота : 48,0 КГц
Метод сжатия : С потерями
Размер потока : 164 Мбайт (12%)
Выравнивание : Разделение по промежуткам
Продолжительность промежутка : 33 мс. (1,00 видеокадр)
Время предзагрузки промежутка : 500 мс.
Заголовок : Профессиональный одноголосый (А.Дольский)
Аудио #3
Идентификатор : 3
Формат : MPEG Audio
Версия формата : Version 1
Профиль формата : Layer 3
Режим : Dual mono
Идентификатор кодека : 55
Идентификатор кодека/Подсказка : MP3
Продолжительность : 1 ч. 42 м.
Вид битрейта : Постоянный
Битрейт : 128 Кбит/сек
Каналы : 2 канала
Частота : 48,0 КГц
Метод сжатия : С потерями
Размер потока : 93,7 Мбайт (7%)
Выравнивание : Разделение по промежуткам
Продолжительность промежутка : 33 мс. (1,00 видеокадр)
Время предзагрузки промежутка : 500 мс.
Заголовок : Английский
Библиотека кодирования : LAME3.92



   Похожие торренты   Торрент   Размер 
В этой теме нет новых непрочитанных сообщений. Генри: Портрет серийного убийцы / Henry: Portrait of a Serial Killer (1986) BDRemux 1080p | P, A

0 | 12

17.86 ГБ

В этой теме нет новых непрочитанных сообщений. Генри: Портрет серийного убийцы / Henry: Portrait of a Serial Killer (1986) BDRip 720p | P, A

39 | 5

5 ГБ

В этой теме нет новых непрочитанных сообщений. Профиль убийцы-2 [02х01-02 из 24] (2015) HDTVRip | КПК

0 | 0

835.62 МБ

В этой теме нет новых непрочитанных сообщений. Генри: Портрет серийного убийцы / Henry: Portrait of a Serial Killer (1986) BDRemux 1080p | Remastered | P, A

13 | 3

20.98 ГБ

В этой теме нет новых непрочитанных сообщений. Профиль убийцы [02x01 из 24] (2015) HDTVRip от Files-x

0 | 0

2.15 ГБ

В этой теме нет новых непрочитанных сообщений. Профиль убийцы-2 [02x01-24 из 24] (2015) WEBRip от Files-x

1728 | 1162

14.07 ГБ

В этой теме нет новых непрочитанных сообщений. Профиль убийцы-2 [02x01-02 из 24] (2015) HDTVRip-AVC от Files-x

39 | 10

1.42 ГБ




Вы не можете начинать темы
Вы не можете отвечать на сообщения
Вы не можете редактировать свои сообщения
Вы не можете удалять свои сообщения
Вы не можете добавлять вложения

Перейти:  
 Вход
ppkBB3cker v.2 © 2008-2014 @ PPK
[ Time : 0.026s | 17 Queries | GZIP : Off ]

cron