img image001 image001 image001 image001 image001 image001 image001 image001 image001 image001 image001 image001 image001 image001 image001 image001

Planets Sun Sun Sun
Статистика раздачи
Автор: Nickolas3434 | Размер: 2.92 ГБ | Добавлен: 13 ноя 2015
Раздают: 163    Качают: 7
Скачать торрент
Скачать торрент
Описание торрента

СообщениеДобавлено: 13 ноя 2015 


Страна: Франция
Производство: Centre National de la Cinématographie (CNC), Département de la Dordogne, DEMD Productions, Espace Image, Europe Images International, Fontana, France Télévision, Région Aquitaine, Radio Télévision Belge Francofone (RTBF), Télévision Suisse-Romande (TSR), TV5 Monde
Жанр: Исторический
Год выпуска: 2009
Продолжительность: 2 х ~ 01:40:00
Перевод: Профессиональный двухголосый
Режиссер: Анри Эльман
В ролях: Фредерик Дифенталь, Жульетт Ламболи, Грегори Фетусси, Франсуа Леванталь, Эстелль Винсент, Гвендолин Амон, Гай Амрам
Описание: Середина XVIII века. Молодой авантюрист Картуш становится предводителем шайки в Париже и его окрестностях. Отбирая богатство у аристократов, и раздавая его беднякам, он приобретает славу благородного разбойника.

Исходник: DVD5 R2
Тип релиза: DVDRip
Контейнер: AVI
Видео: 720x400 (1.80:1), 25 fps, XviD MPEG-4 ~1623 kbps avg, 0.23 bit/pixel
Аудио 1: 48 kHz, AC3 Dolby Digital, 2/0 (L,R) ch, ~192 kbps (русский)
Аудио 2: 48 kHz, AC3 Dolby Digital, 2/0 (L,R) ch, ~192 kbps (французский)
Общее
Полное имя : D:ААА2КАРТУШ1 серия.avi
Формат : AVI
Формат/Информация : Audio Video Interleave
Размер файла : 1,46 Гбайт
Продолжительность : 1 ч. 43 м.
Общий поток : 2023 Кбит/сек
Программа кодирования : VirtualDubMod 1.5.10.2 (build 2540/release)
Библиотека кодирования : VirtualDubMod build 2540/release
Видео
Идентификатор : 0
Формат : MPEG-4 Visual
Профиль формата : Advanced Simple@L5
Параметр BVOP формата : 2
Параметр QPel формата : Нет
Параметр GMC формата : Без точки перехода
Параметр матрицы формата : Default (MPEG)
Режим смешивания : Сжатый битовый поток
Идентификатор кодека : XVID
Идентификатор кодека/Подсказка : XviD
Продолжительность : 1 ч. 43 м.
Битрейт : 1625 Кбит/сек
Ширина : 720 пикселей
Высота : 400 пикселей
Соотношение сторон : 16:9
Частота кадров : 25,000 кадров/сек
Цветовое пространство : YUV
Субдискретизация насыщенности : 4:2:0
Битовая глубина : 8 бит
Тип развёртки : Прогрессивная
Метод сжатия : С потерями
Бит/(Пиксели*Кадры) : 0.226
Размер потока : 1,17 Гбайт (80%)
Библиотека кодирования : XviD 1.2.1 (UTC 2008-12-04)
Аудио #1
Идентификатор : 1
Формат : AC-3
Формат/Информация : Audio Coding 3
Расширение режима : CM (complete main)
Параметр Endianness формата : Big
Идентификатор кодека : 2000
Продолжительность : 1 ч. 43 м.
Вид битрейта : Постоянный
Битрейт : 192 Кбит/сек
Каналы : 2 канала
Расположение каналов : Front: L R
Частота : 48,0 КГц
Битовая глубина : 16 бит
Метод сжатия : С потерями
Размер потока : 142 Мбайт (9%)
Выравнивание : Разделение по промежуткам
Продолжительность промежутка : 40 мс. (1,00 видеокадр)
Время предзагрузки промежутка : 500 мс.
Аудио #2
Идентификатор : 2
Формат : AC-3
Формат/Информация : Audio Coding 3
Расширение режима : CM (complete main)
Параметр Endianness формата : Big
Идентификатор кодека : 2000
Продолжительность : 1 ч. 43 м.
Вид битрейта : Постоянный
Битрейт : 192 Кбит/сек
Каналы : 2 канала
Расположение каналов : Front: L R
Частота : 48,0 КГц
Битовая глубина : 16 бит
Метод сжатия : С потерями
Размер потока : 142 Мбайт (9%)
Выравнивание : Разделение по промежуткам
Продолжительность промежутка : 40 мс. (1,00 видеокадр)
Время предзагрузки промежутка : 500 мс.


Релиз:



   Похожие торренты   Торрент   Размер 
В этой теме нет новых непрочитанных сообщений. Разбойник / The Brigand (1952) DVDRip | L1

97 | 17

1.49 ГБ

В этой теме нет новых непрочитанных сообщений. Благородный разбойник Владимир Дубровский (1989) DVDRip от Кинорадиомагия

206 | 34

1.37 ГБ

В этой теме нет новых непрочитанных сообщений. Благородный разбойник Владимир Дубровский (1988) SATRip | Телеверсия

2478 | 144

4.37 ГБ

В этой теме нет новых непрочитанных сообщений. Благородный Дом [01-04 из 04] / Noble House (1988) DVDRip

1 | 2

5.82 ГБ

В этой теме нет новых непрочитанных сообщений. Благородный венецианец / Culastrisce nobile veneziano (1976) DVDRip-AVC | P, P2

6 | 0

1.75 ГБ

В этой теме нет новых непрочитанных сообщений. Благородный демон Энма / Kikoushi Enma [OVA] [01-02 из 04] (2006) DVDRip-AVC | AniFilm

2 | 0

1.21 ГБ

В этой теме нет новых непрочитанных сообщений. Воображаемые преступления / Благородный аферист / Imaginary Crimes (1994) DVDRip | A

69 | 15

1.41 ГБ




Вы не можете начинать темы
Вы не можете отвечать на сообщения
Вы не можете редактировать свои сообщения
Вы не можете удалять свои сообщения
Вы не можете добавлять вложения

Перейти:  
 Вход
ppkBB3cker v.2 © 2008-2014 @ PPK
[ Time : 0.023s | 17 Queries | GZIP : Off ]

cron