img image001 image001 image001 image001 image001 image001 image001 image001 image001 image001 image001 image001 image001 image001 image001

Planets Sun Sun Sun
Статистика раздачи
Автор: Nickolas3434 | Размер: 1.45 ГБ | Добавлен: 14 ноя 2015
Раздают: 46    Качают: 11
Скачать торрент
Скачать торрент
Описание торрента

СообщениеДобавлено: 14 ноя 2015 


Информация о фильме
Название: 5x2
Оригинальное название: 5x2
Год выхода: 2004
Жанр: мелодрама / драма
Режиссер: Франсуа Озон / Francois Ozon
В ролях: Валерия Бруни Тедески, Стефан Фрейсс, Франсуаза Фабиан, Майкл Лонсдэйл, Джералдин Пэйлхэс и др.
О фильме:
История современной супружеской пары: Жиль и Марион, показанная в пяти эпизодах их супружеской жизни: их развод, их обед с друзьями, рождение их первенца, их свадьба и знакомство…

Страна: Франция
Студия: Fidélité Productions, France 2 Cinéma, FOZ
Продолжительность: 01:26:50.040
Перевод: Профессиональный (многоголосый, закадровый) R5
Файл
Кодек: h.264
Качество: DVDRip-AVC
Видео: 712x544 (1.85:1) @ 1006x544 (анаморф), 25.000 fps, AVC, ~1622 Kbps, 0.168 bits/pixel
Звук:
Русский, 48.0 KHz, AC3, 6 ch, 384 Kbps
Французский, 48.0 KHz, AC3, 6 ch, 384 Kbps
Субтитры: Русские, VobSub
Исходник R5
General
Unique ID : 184876242049084156358321881578743278100 (0x8B15DE7A81D73EA998E77C30A4142A14)
Complete name : I:Films5х2.2004.DVDRip-AVC.mkv
Format : Matroska
Format version : Version 4 / Version 2
File size : 1.45 GiB
Duration : 1h 26mn
Overall bit rate : 2 393 Kbps
Encoded date : UTC 2015-11-13 17:36:16
Writing application : mkvmerge v8.5.2 ('Crosses') 64bit
Writing library : libebml v1.3.3 + libmatroska v1.4.4
DURATION : 01:20:39.990000000
NUMBER_OF_FRAMES : 744
NUMBER_OF_BYTES : 888299
_STATISTICS_WRITING_APP : mkvmerge v8.5.2 ('Crosses') 64bit
_STATISTICS_WRITING_DATE_UTC : 2015-11-13 17:36:16
_STATISTICS_TAGS : BPS DURATION NUMBER_OF_FRAMES NUMBER_OF_BYTES
Video
ID : 1
Format : AVC
Format/Info : Advanced Video Codec
Format profile : High@L4.1
Format settings, CABAC : Yes
Format settings, ReFrames : 11 frames
Codec ID : V_MPEG4/ISO/AVC
Duration : 1h 26mn
Bit rate : 1 622 Kbps
Width : 712 pixels
Height : 544 pixels
Display aspect ratio : 1.85:1
Original display aspect ratio : 1.85:1
Frame rate mode : Constant
Frame rate : 25.000 fps
Color space : YUV
Chroma subsampling : 4:2:0
Bit depth : 8 bits
Scan type : Progressive
Bits/(Pixel*Frame) : 0.168
Stream size : 979 MiB (66%)
Writing library : x264 core 146 r2538 121396c
Encoding settings : cabac=1 / ref=11 / deblock=1:0:0 / analyse=0x3:0x133 / me=umh / subme=11 / psy=1 / psy_rd=1.10:0.15 / mixed_ref=1 / me_range=48 / chroma_me=1 / trellis=2 / 8x8dct=1 / cqm=0 / deadzone=21,11 / fast_pskip=0 / chroma_qp_offset=-3 / threads=8 / lookahead_threads=2 / sliced_threads=0 / nr=0 / decimate=0 / interlaced=0 / bluray_compat=0 / constrained_intra=0 / bframes=10 / b_pyramid=2 / b_adapt=2 / b_bias=0 / direct=3 / weightb=1 / open_gop=0 / weightp=2 / keyint=250 / keyint_min=25 / scenecut=40 / intra_refresh=0 / rc_lookahead=60 / rc=2pass / mbtree=0 / bitrate=1622 / ratetol=1.0 / qcomp=0.60 / qpmin=0 / qpmax=69 / qpstep=4 / cplxblur=20.0 / qblur=0.5 / vbv_maxrate=40000 / vbv_bufsize=50000 / nal_hrd=none / filler=0 / ip_ratio=1.40 / pb_ratio=1.30 / aq=1:1.00
Default : No
Forced : No
Color range : Limited
Matrix coefficients : BT.601
Audio #1
ID : 2
Format : AC-3
Format/Info : Audio Coding 3
Mode extension : CM (complete main)
Format settings, Endianness : Big
Codec ID : A_AC3
Duration : 1h 26mn
Bit rate mode : Constant
Bit rate : 384 Kbps
Channel(s) : 6 channels
Channel positions : Front: L C R, Side: L R, LFE
Sampling rate : 48.0 KHz
Compression mode : Lossy
Stream size : 238 MiB (16%)
Language : Russian
Default : Yes
Forced : No
Audio #2
ID : 3
Format : AC-3
Format/Info : Audio Coding 3
Mode extension : CM (complete main)
Format settings, Endianness : Big
Codec ID : A_AC3
Duration : 1h 26mn
Bit rate mode : Constant
Bit rate : 384 Kbps
Channel(s) : 6 channels
Channel positions : Front: L C R, Side: L R, LFE
Sampling rate : 48.0 KHz
Compression mode : Lossy
Stream size : 238 MiB (16%)
Language : French
Default : No
Forced : No
Text
ID : 4
Format : VobSub
Muxing mode : zlib
Codec ID : S_VOBSUB
Codec ID/Info : Picture based subtitle format used on DVDs
Language : Russian
Default : No
Forced : No
Menu
00:00:00.000 : en:Chapter 01
00:03:39.960 : en:Chapter 02
00:11:30.560 : en:Chapter 03
00:18:25.520 : en:Chapter 04
00:27:12.280 : en:Chapter 05
00:31:00.040 : en:Chapter 06
00:34:44.160 : en:Chapter 07
00:38:36.600 : en:Chapter 08
00:42:54.000 : en:Chapter 09
00:46:56.840 : en:Chapter 10
00:49:50.000 : en:Chapter 11
00:53:35.680 : en:Chapter 12
00:58:14.920 : en:Chapter 13
01:02:39.600 : en:Chapter 14
01:06:02.400 : en:Chapter 15
01:11:25.840 : en:Chapter 16
01:17:36.080 : en:Chapter 17
01:22:49.120 : en:Chapter 18



Релиз от: Temperest



   Похожие торренты   Торрент   Размер 
В этой теме нет новых непрочитанных сообщений. Волейбол 2004 / International Volleyball 2004 (2004) PC | Лицензия

134 | 3

217.66 МБ

В этой теме нет новых непрочитанных сообщений. Тегеран-43 (1981) DVDRip + Фильм о фильме (2004) DVDRip

5 | 11

2.14 ГБ

В этой теме нет новых непрочитанных сообщений. Рэй / Ray (2004) DVDRip

116 | 11

2.06 ГБ

В этой теме нет новых непрочитанных сообщений. Да / Yes (2004) DVDRip | P

4 | 0

1.45 ГБ

В этой теме нет новых непрочитанных сообщений. Боец (2004) DVDRip

361 | 48

4.34 ГБ

В этой теме нет новых непрочитанных сообщений. Кадеты [01-04 из 04] (2004) DVDRip

32 | 10

2.73 ГБ

В этой теме нет новых непрочитанных сообщений. Настройщик (2004) DVDRip

48 | 5

1.37 ГБ




Вы не можете начинать темы
Вы не можете отвечать на сообщения
Вы не можете редактировать свои сообщения
Вы не можете удалять свои сообщения
Вы не можете добавлять вложения

Перейти:  
Для Мосгорсуда, Роскомнадзора и рекламодателей: mosgorsud-torrent[собачка]yandex.ru
 Вход
ppkBB3cker v.2 © 2008-2014 @ PPK
[ Time : 0.044s | 16 Queries | GZIP : Off ]

cron