img image001 image001 image001 image001 image001 image001 image001 image001 image001 image001 image001 image001 image001 image001 image001

Planets Sun Sun Sun
Статистика раздачи
Автор: Nickolas3434 | Размер: 1.46 ГБ | Добавлен: 25 ноя 2015
Раздают: 322    Качают: 33
Скачать торрент
Скачать торрент
Описание торрента

СообщениеДобавлено: 25 ноя 2015 


Информация о фильме
Название: Книга джунглей
Оригинальное название: The Jungle Book
Год выхода: 1994
Жанр: мелодрама, приключения, семейный
Режиссер: Стивен Соммерс
В ролях: Джейсон Скотт Ли, Кэри Элвис, Лина Хиди, Сэм Нил, Джон Клиз, Джейсон Флеминг, Стэфан Калифа, Рон Донаки, Анирудх Агарвал, Фаран Таир
Описание: Выросший в джунглях среди диких животных Маугли влюбляется в Кэтлин, дочку полковника Джефри Брайдона, с которой он был знаком еще до того, как потерялся в джунглях. Но подлый жених Кэтлин, капитан Бун, получив от неё отказ, похищает её, чтобы заставить Маугли привести его к сокровищам затерянного обезьяньего города.

Страна: США
Продолжительность: 01:51:01
Перевод:
1. Профессиональный (двухголосый закадровый) - Премьер
2. Авторский (одноголосый закадровый) - В. Горчаков
Файл
Формат: AVI
Качество: HDTVRip
Видео: 720x304, (2,35:1), XviD, 1427 Кбит/сек, 23,976 кадра/сек
Аудио №1: AC3, 224 Кбит/сек, 2 канала, 48,0 КГц - Премьер
Аудио №2: AC3, 224 Кбит/сек, 2 канала, 48,0 КГц - Горчаков

Общее
Полное имя : F:FilmКнига джунглей - The Jungle Book (1994) HDTVRip (P2, A)Книга джунглей.avi
Формат : AVI
Формат/Информация : Audio Video Interleave
Размер файла : 1,46 Гбайт
Продолжительность : 1 ч. 51 м.
Общий поток : 1889 Кбит/сек
Программа кодирования : VirtualDubMod 1.5.10.2 (build 2540/release)
Библиотека кодирования : VirtualDubMod build 2540/release
Видео
Идентификатор : 0
Формат : MPEG-4 Visual
Профиль формата : Advanced Simple@L5
Параметр BVOP формата : 2
Параметр QPel формата : Нет
Параметр GMC формата : Без точки перехода
Параметр матрицы формата : Выборочная
Идентификатор кодека : XVID
Идентификатор кодека/Подсказка : XviD
Продолжительность : 1 ч. 51 м.
Битрейт : 1427 Кбит/сек
Ширина : 720 пикселей
Высота : 304 пикселя
Соотношение сторон : 2,35:1
Частота кадров : 23,976 кадра/сек
Цветовое пространство : YUV
Субдискретизация насыщенности : 4:2:0
Битовая глубина : 8 бит
Тип развёртки : Прогрессивная
Метод сжатия : С потерями
Бит/(Пиксели*Кадры) : 0.272
Размер потока : 1,11 Гбайт (76%)
Библиотека кодирования : XviD 65
Аудио #1
Идентификатор : 1
Формат : AC-3
Формат/Информация : Audio Coding 3
Расширение режима : CM (complete main)
Параметр Endianness формата : Big
Идентификатор кодека : 2000
Продолжительность : 1 ч. 51 м.
Вид битрейта : Постоянный
Битрейт : 224 Кбит/сек
Каналы : 2 канала
Расположение каналов : Front: L R
Частота : 48,0 КГц
Метод сжатия : С потерями
Размер потока : 178 Мбайт (12%)
Выравнивание : Разделение по промежуткам
Продолжительность промежутка : 42 мс. (1,00 видеокадр)
Время предзагрузки промежутка : 500 мс.
Аудио #2
Идентификатор : 2
Формат : AC-3
Формат/Информация : Audio Coding 3
Расширение режима : CM (complete main)
Параметр Endianness формата : Big
Идентификатор кодека : 2000
Продолжительность : 1 ч. 51 м.
Вид битрейта : Постоянный
Битрейт : 224 Кбит/сек
Каналы : 2 канала
Расположение каналов : Front: L R
Частота : 48,0 КГц
Метод сжатия : С потерями
Размер потока : 178 Мбайт (12%)
Выравнивание : Разделение по промежуткам
Продолжительность промежутка : 42 мс. (1,00 видеокадр)
Время предзагрузки промежутка : 500 мс.



   Похожие торренты   Торрент   Размер 
В этой теме нет новых непрочитанных сообщений. Книга джунглей / The Jungle Book (1994) HDRip-AVC | P2

131 | 3

745.32 МБ

В этой теме нет новых непрочитанных сообщений. Книга джунглей / The Jungle Book (1994) DVDRip

56 | 13

1.36 ГБ

В этой теме нет новых непрочитанных сообщений. Книга джунглей / The Jungle Book (1994) BDRip 720p от FREEISLAND

57 | 6

4.37 ГБ

В этой теме нет новых непрочитанных сообщений. Книга джунглей / The Jungle Book (2016) TS

9101 | 712

1.35 ГБ

В этой теме нет новых непрочитанных сообщений. OST - Книга джунглей / The Jungle Book (2016) MP3

71 | 5

172.1 МБ

В этой теме нет новых непрочитанных сообщений. Книга джунглей 2 / The Jungle Book 2 (2003) DVDRip

393 | 7

743.13 МБ

В этой теме нет новых непрочитанных сообщений. Книга джунглей / The Jungle Book (2016) DVD5

97 | 32

4.37 ГБ




Вы не можете начинать темы
Вы не можете отвечать на сообщения
Вы не можете редактировать свои сообщения
Вы не можете удалять свои сообщения
Вы не можете добавлять вложения

Перейти:  
Для Мосгорсуда, Роскомнадзора и рекламодателей: mosgorsud-torrent[собачка]yandex.ru
 Вход
ppkBB3cker v.2 © 2008-2014 @ PPK
[ Time : 0.046s | 18 Queries | GZIP : Off ]

cron