img image001 image001 image001 image001 image001 image001 image001 image001 image001 image001 image001 image001 image001 image001 image001 image001

Planets Sun Sun Sun
Статистика раздачи
Автор: Nickolas3434 | Размер: 1.48 ГБ | Добавлен: 25 ноя 2015
Раздают: 175    Качают: 39
Скачать торрент
Скачать торрент
Описание торрента

СообщениеДобавлено: 25 ноя 2015 


Информация о фильме
Название: Пятьдесят на пятьдесят
Оригинальное название: Fifty/Fifty
Год выхода: 1992
Жанр: боевик, комедия, приключения
Режиссер: Чарльз Мартин Смит
В ролях: Питер Уэллер, Роберт Хэйс, Чарльз Мартин Смит, Рамона Рахман, Кэй Тонг Лим, Дом Магуили, Азмил Мустафа, Дхарма Гарун Аль-Рашид, Ос, Рохмат Джурайми
Описание: Джейк и Френк с группой необученных партизан отправляются свергать Южноазиатского диктатора. Один руководит боевиками, другой всех развлекает, и оба участвуют в многочисленных приключениях.
Борясь с обстоятельствами и с собой, эти два парня становятся теми, кем они никогда и не думали стать — героями.

Страна: США
Продолжительность: 01:40:53
Перевод: Профессиональный (многоголосый закадровый) - "Человек" + Оригинал (английский)
Файл
Формат: AVI
Качество: DVDRip
Видео: 704x528, (4:3), XviD, 1698 Кбит/сек, 23,976 кадра/сек
Аудио №1: AC3, 192 Кбит/сек, 2 канала, 48,0 КГц - "Человек"
Аудио №2: AC3, 192 Кбит/сек, 2 канала, 48,0 КГц - Оригинал (английский)
Субтитры:

Общее
Полное имя : F:FilmПятьдесят на пятьдесят - FiftyFifty (1992) DVDRip (MVO)Пятьдесят на пятьдесят.avi
Формат : AVI
Формат/Информация : Audio Video Interleave
Размер файла : 1,48 Гбайт
Продолжительность : 1 ч. 40 м.
Общий поток : 2096 Кбит/сек
Программа кодирования : VirtualDubMod 1.5.10.2 (build 2540/release)
Библиотека кодирования : VirtualDubMod build 2540/release
Видео
Идентификатор : 0
Формат : MPEG-4 Visual
Профиль формата : Simple@L3
Параметр BVOP формата : Нет
Параметр QPel формата : Нет
Параметр GMC формата : Без точки перехода
Параметр матрицы формата : Default (H.263)
Идентификатор кодека : XVID
Идентификатор кодека/Подсказка : XviD
Продолжительность : 1 ч. 40 м.
Битрейт : 1698 Кбит/сек
Ширина : 704 пикселя
Высота : 528 пикселей
Соотношение сторон : 4:3
Частота кадров : 23,976 кадра/сек
Цветовое пространство : YUV
Субдискретизация насыщенности : 4:2:0
Битовая глубина : 8 бит
Тип развёртки : Прогрессивная
Метод сжатия : С потерями
Бит/(Пиксели*Кадры) : 0.191
Размер потока : 1,20 Гбайт (81%)
Библиотека кодирования : XviD 1.1.2 (UTC 2006-11-01)
Аудио #1
Идентификатор : 1
Формат : AC-3
Формат/Информация : Audio Coding 3
Расширение режима : CM (complete main)
Параметр Endianness формата : Big
Идентификатор кодека : 2000
Продолжительность : 1 ч. 40 м.
Вид битрейта : Постоянный
Битрейт : 192 Кбит/сек
Каналы : 2 канала
Расположение каналов : Front: L R
Частота : 48,0 КГц
Метод сжатия : С потерями
Размер потока : 139 Мбайт (9%)
Выравнивание : Разделение по промежуткам
Продолжительность промежутка : 42 мс. (1,00 видеокадр)
Время предзагрузки промежутка : 500 мс.
Аудио #2
Идентификатор : 2
Формат : AC-3
Формат/Информация : Audio Coding 3
Расширение режима : CM (complete main)
Параметр Endianness формата : Big
Идентификатор кодека : 2000
Продолжительность : 1 ч. 40 м.
Вид битрейта : Постоянный
Битрейт : 192 Кбит/сек
Каналы : 2 канала
Расположение каналов : Front: L R
Частота : 48,0 КГц
Метод сжатия : С потерями
Размер потока : 139 Мбайт (9%)
Выравнивание : Разделение по промежуткам
Продолжительность промежутка : 42 мс. (1,00 видеокадр)
Время предзагрузки промежутка : 500 мс.

Пятьдесят на пятьдесят / Fifty/Fifty (1992) DVDRip от NovaLan Авторский, одноголосый (А.Михалев)



   Похожие торренты   Торрент   Размер 
В этой теме нет новых непрочитанных сообщений. Пятьдесят на пятьдесят / Fifty/Fifty (1992) DVDRip от NovaLan

0 | 3

1.36 ГБ

В этой теме нет новых непрочитанных сообщений. Пятьдесят на пятьдесят / Fifty/Fifty (1992) DVDRip от NovaLan

53 | 8

1.48 ГБ

В этой теме нет новых непрочитанных сообщений. Пятьдесят таблеток / Fifty Pills (2006) DVDScr

15 | 4

687.09 МБ

В этой теме нет новых непрочитанных сообщений. На пятьдесят оттенков темнее / Fifty Shades Darker (2017) TS | D

2352 | 61

1.46 ГБ

В этой теме нет новых непрочитанных сообщений. OST - На пятьдесят оттенков темнее / Fifty Shades Darker (2017) MP3

24 | 3

157.28 МБ

В этой теме нет новых непрочитанных сообщений. OST - На пятьдесят оттенков темнее / Fifty Shades Darker (2017) MP3

1 | 0

154.24 МБ

В этой теме нет новых непрочитанных сообщений. OST - Пятьдесят оттенков серого / Fifty Shades of Grey (2015) AAC

215 | 16

119.8 МБ




Вы не можете начинать темы
Вы не можете отвечать на сообщения
Вы не можете редактировать свои сообщения
Вы не можете удалять свои сообщения
Вы не можете добавлять вложения

Перейти:  
 Вход
ppkBB3cker v.2 © 2008-2014 @ PPK
[ Time : 0.037s | 18 Queries | GZIP : Off ]

cron