img image001 image001 image001 image001 image001 image001 image001 image001 image001 image001 image001 image001 image001 image001 image001 image001

Planets Sun Sun Sun
Статистика раздачи
Автор: Nickolas3434 | Размер: 3.92 ГБ | Добавлен: 29 ноя 2015
Раздают: 12    Качают: 6
Скачать торрент
Скачать торрент
Описание торрента

СообщениеДобавлено: 29 ноя 2015 


Страна: США
Жанр: боевик, комедия, военный
Год выпуска: 1979
Продолжительность: 01:58:59
Перевод: Профессиональный (полное дублирование) + Оригинальный
Субтитры: русские (Forced), русские, английские.


Режиссер: Стивен Спилберг / Steven Spielberg


В ролях: Дэн Эйкройд (Sgt. Frank Tree), Нед Битти (Ward Douglas), Джон Белуши (Capt. Wild Bill Kelso), Лоррэйн Гари (Joan Douglas), Мюррэй Хэмилтон (Claude Crumn), Кристофер Ли (Capt. Wolfgang von Kleinschmidt), Тим Мэтисон (Capt. Loomis Birkhead), Тосиро Мифунэ (Cmdr. Akiro Mitamura), Уоррен Оутс (Col. «Madman» Maddox), Роберт Стэк (Maj. Gen. Joseph W. Stilwell), Трит Уильямс (Cpl. Chuck «Stretch» Sitarski), Нэнси Аллен (Donna Stratton)
Дублёры: Кирилл Туранский (Sgt. Frank Tree), Владимир Левашёв (Ward Douglas), Константин Карасик (Capt. Wild Bill Kelso), Анастасия Лапина (Joan Douglas; Maxine Dexheimer), Артем Лысков (Capt. Loomis Birkhead), Борис Токарев (Col. «Madman» Maddox; Angelo Scioli), Андрей Градов (Maj. Gen. Joseph W. Stilwell), Станислав Тикунов (Cpl. Chuck «Stretch» Sitarski), Екатерина Семенова (Donna Stratton), Александр Дасевич (Herbie Kazlminsky; Wally Stephens), Анастасия Жаркова (Betty Douglas), Юрий Меншагин


Описание: Комедийный фильм о панике в Лос-Анджелесе после известий о нападении японцев на Перл-Харбор и о приближении японской подводной лодки к берегам Калифорнии с заданием уничтожить Голливуд.



MPAA: PG - Рекомендуется присутствие родителей


Качество: BDRip
Контейнер: MKV
Видео: AVC, 1280x544 (2.35:1), 3818 kbps, 23,976 fps, 0,229 bpp
Аудио №1: русский / AC3 / 5.1 / 48 kHz / 448 kbps
Аудио №2: английский / AC3 / 5.1 / 48 kHz / 448 kbps


-----------------------------------------------------------------------------------
x264 [info]: frame I:1245 Avg QP:16.34 size: 94311
x264 [info]: frame P:35966 Avg QP:18.88 size: 36442
x264 [info]: frame B:133972 Avg QP:20.82 size: 14774
x264 [info]: consecutive B-frames: 1.8% 1.7% 6.8% 18.3% 18.1% 47.1% 3.4% 1.1% 1.2% 0.6%
x264 [info]: ref P L0: 42.6% 6.8% 18.4% 9.0% 6.8% 5.2% 4.3% 2.6% 2.2% 1.8% 0.2% 0.0%
-----------------------------------------------------------------------------------
Format : Matroska
Format version : Version 2
File size : 3.92 GiB
Duration : 1h 58mn
Overall bit rate : 4 717 Kbps
Movie name : = 1941 / 1941 BDRip 720p by SC Kosmos =
Encoded date : UTC 2015-11-23 17:15:35
Writing application : mkvmerge v3.3.0 ('Language') gebaut am Mar 24 2010 14:59:24
Writing library : libebml v0.8.0 + libmatroska v0.9.0
Attachment : Yes
Video
ID : 1
Format : AVC
Format/Info : Advanced Video Codec
Format profile : High@L4.1
Format settings, CABAC : Yes
Format settings, ReFrames : 10 frames
Codec ID : V_MPEG4/ISO/AVC
Duration : 1h 58mn
Bit rate : 3 818 Kbps
Width : 1 280 pixels
Height : 544 pixels
Display aspect ratio : 2.35:1
Frame rate : 23.976 fps
Color space : YUV
Chroma subsampling : 4:2:0
Bit depth : 8 bits
Scan type : Progressive
Bits/(Pixel*Frame) : 0.229
Stream size : 3.10 GiB (79%)
Title : 1941 / 1941 BDRip 720p by SC Kosmos
Writing library : x264 core 146 r2538 121396c
Encoding settings : cabac=1 / ref=10 / deblock=1:-1:-1 / analyse=0x3:0x113 / me=umh / subme=11 / psy=1 / psy_rd=1.00:0.00 / mixed_ref=1 / me_range=32 / chroma_me=1 / trellis=2 / 8x8dct=1 / cqm=0 / deadzone=21,11 / fast_pskip=0 / chroma_qp_offset=-2 / threads=12 / lookahead_threads=2 / sliced_threads=0 / nr=0 / decimate=1 / interlaced=0 / bluray_compat=0 / constrained_intra=0 / bframes=9 / b_pyramid=2 / b_adapt=2 / b_bias=0 / direct=3 / weightb=1 / open_gop=0 / weightp=2 / keyint=240 / keyint_min=23 / scenecut=40 / intra_refresh=0 / rc_lookahead=50 / rc=2pass / mbtree=0 / bitrate=3818 / ratetol=1.0 / qcomp=0.60 / qpmin=0 / qpmax=69 / qpstep=4 / cplxblur=20.0 / qblur=0.5 / vbv_maxrate=62500 / vbv_bufsize=78125 / nal_hrd=none / filler=0 / ip_ratio=1.40 / pb_ratio=1.30 / aq=1:1.00
Language : English
Default : No
Forced : No
Color primaries : BT.709-5, BT.1361, IEC 61966-2-4, SMPTE RP177
Transfer characteristics : BT.709-5, BT.1361
Matrix coefficients : BT.709-5, BT.1361, IEC 61966-2-4 709, SMPTE RP177
Audio #1
ID : 2
Format : AC-3
Format/Info : Audio Coding 3
Mode extension : CM (complete main)
Codec ID : A_AC3
Duration : 1h 58mn
Bit rate mode : Constant
Bit rate : 448 Kbps
Channel(s) : 6 channels
Channel positions : Front: L C R, Side: L R, LFE
Sampling rate : 48.0 KHz
Bit depth : 16 bits
Compression mode : Lossy
Stream size : 381 MiB (9%)
Title : Дубляж
Language : Russian
Default : Yes
Forced : Yes
Audio #2
ID : 3
Format : AC-3
Format/Info : Audio Coding 3
Mode extension : CM (complete main)
Codec ID : A_AC3
Duration : 1h 58mn
Bit rate mode : Constant
Bit rate : 448 Kbps
Channel(s) : 6 channels
Channel positions : Front: L C R, Side: L R, LFE
Sampling rate : 48.0 KHz
Bit depth : 16 bits
Compression mode : Lossy
Stream size : 381 MiB (9%)
Language : English
Default : No
Forced : No
Text #1
ID : 4
Format : UTF-8
Codec ID : S_TEXT/UTF8
Codec ID/Info : UTF-8 Plain Text
Title : Forced
Language : Russian
Default : Yes
Forced : Yes
Text #2
ID : 5
Format : UTF-8
Codec ID : S_TEXT/UTF8
Codec ID/Info : UTF-8 Plain Text
Language : Russian
Default : No
Forced : No
Text #3
ID : 6
Format : UTF-8
Codec ID : S_TEXT/UTF8
Codec ID/Info : UTF-8 Plain Text
Language : English
Default : No
Forced : No









   Похожие торренты   Торрент   Размер 
В этой теме нет новых непрочитанных сообщений. 1941 / 1941 (1979) BDRip от HQCLUB | Theatrical Cut

51 | 8

2.18 ГБ

В этой теме нет новых непрочитанных сообщений. 1941 / 1941 (1979) BDRip 720p от NNNB | P, A

96 | 20

7.76 ГБ

В этой теме нет новых непрочитанных сообщений. 1941 / 1941 (1979) BDRip от HQCLUB | Director's Cut

116 | 15

2.18 ГБ

В этой теме нет новых непрочитанных сообщений. 1941 / 1941 (1979) BDRip 1080p от MediaClub | P, A

16 | 9

17.97 ГБ

В этой теме нет новых непрочитанных сообщений. 1941 / 1941 (1979) BDRemux 1080p от MediaClub | P, A

20 | 15

47.49 ГБ

В этой теме нет новых непрочитанных сообщений. Вермахт в России 1941-1945 / The Wehrmacht in Russia 1941-1945 (1999) DVDRip от Pshichko66

14 | 2

2.05 ГБ

В этой теме нет новых непрочитанных сообщений. Дамбо / Dumbo (1941) BDRip 720p | 60 fps | D

135 | 7

3.04 ГБ




Вы не можете начинать темы
Вы не можете отвечать на сообщения
Вы не можете редактировать свои сообщения
Вы не можете удалять свои сообщения
Вы не можете добавлять вложения

Перейти:  
 Вход
ppkBB3cker v.2 © 2008-2014 @ PPK
[ Time : 0.020s | 18 Queries | GZIP : Off ]

cron